<?xml version="1.0" standalone="no"?>
<!DOCTYPE svg PUBLIC "-//W3C//DTD SVG 1.1//EN" "http://www.w3.org/Graphics/SVG/1.1/DTD/svg11.dtd" >
<svg xmlns="http://www.w3.org/2000/svg">
<metadata>Generated by IcoMoon</metadata>
<defs>
<font id="icomoon" horiz-adv-x="1024">
<font-face units-per-em="1024" ascent="960" descent="-64" />
<missing-glyph horiz-adv-x="1024" />
<glyph unicode="&#x20;" horiz-adv-x="512" d="" />
<glyph unicode="&#xe900;" glyph-name="calling" d="M832 544.001c0-8.487-3.373-16.627-9.37-22.627-6.003-6.001-14.144-9.373-22.63-9.373h-192c-8.487 0-16.626 3.372-22.627 9.373s-9.373 14.14-9.373 22.627v192c0 8.487 3.372 16.626 9.373 22.627s14.14 9.373 22.627 9.373c8.487 0 16.626-3.372 22.627-9.373s9.373-14.14 9.373-22.627v-114.773l201.389 201.386c2.925 3.144 6.458 5.666 10.387 7.415 3.923 1.748 8.16 2.689 12.461 2.765 4.294 0.076 8.563-0.714 12.544-2.324 3.987-1.61 7.603-4.005 10.643-7.043s5.434-6.659 7.046-10.643c1.606-3.985 2.4-8.252 2.323-12.549s-1.018-8.534-2.765-12.46c-1.747-3.925-4.269-7.458-7.418-10.387l-201.382-201.387h114.771c8.486 0 16.627-3.372 22.63-9.373 5.997-6.001 9.37-14.14 9.37-22.627zM64 768c0 33.948 13.485 66.505 37.491 90.509s56.562 37.491 90.509 37.491h58.539c36.693 0 68.693-25.003 77.61-60.587l47.147-188.714c3.821-15.275 3.049-31.337-2.218-46.175s-14.796-27.791-27.393-37.238l-55.168-41.386c-5.76-4.31-6.997-10.624-5.376-15.019 24.081-65.487 62.106-124.958 111.443-174.296 49.338-49.34 108.809-87.362 174.296-111.445 4.395-1.619 10.667-0.384 15.019 5.376l41.386 55.168c9.447 12.602 22.398 22.125 37.24 27.392 14.835 5.267 30.899 6.042 46.176 2.221l188.71-47.149c35.584-8.915 60.589-40.915 60.589-77.651v-58.496c0-33.946-13.485-66.502-37.491-90.509s-56.563-37.491-90.509-37.491h-96c-371.115 0-672 300.883-672 672v96z" />
<glyph unicode="&#xe901;" glyph-name="fig-file" d="M864 576h-250.5c-55.98 0-101.5 45.519-101.5 101.5v250.5c0 11.52 3.040 22.48 8.54 32h-323.040c-38.32 0-69.5-31.18-69.5-69.5v-885c0-38.319 31.18-69.5 69.5-69.5h629c38.319 0 69.5 31.181 69.5 69.5v579.040c-9.521-5.5-20.48-8.54-32-8.54zM393.38 374.62c12.501 12.501 32.738 12.501 45.239 0l41.38-41.359v194.741c0 17.677 14.32 31.997 32 31.997s32-14.32 32-31.997v-194.741l41.38 41.359c12.479 12.501 32.76 12.501 45.239 0 12.501-12.479 12.501-32.76 0-45.239l-96-96c-6.745-6.92-16.462-10.043-25.7-9.24-16.023 2.14-10.97 0.671-115.54 105.24-12.501 12.479-12.501 32.76 0 45.239zM672 96h-320c-17.68 0-32 14.32-32 32s14.32 32 32 32h320c17.68 0 32-14.32 32-32s-14.32-32-32-32zM613.5 640h250.5l-288 288v-250.5c0-20.679 16.821-37.5 37.5-37.5z" />
<glyph unicode="&#xe902;" glyph-name="grid" d="M64 236.479v-140.479c0.075-25.438 10.213-49.812 28.2-67.8s42.362-28.125 67.8-28.2h161.28v236.479h-257.28zM385.277 896h253.44v-896h-253.44v896zM64 800v-499.521h257.28v595.521h-161.28c-25.438-0.074-49.813-10.212-67.8-28.2s-28.126-42.362-28.2-67.8zM864.003 896h-161.28v-288h257.28v192c-0.073 25.438-10.21 49.813-28.198 67.8s-42.364 28.126-67.802 28.2zM702.723 544v-544h161.28c25.438 0.075 49.815 10.213 67.802 28.2s28.125 42.361 28.198 67.8v448h-257.28z" />
<glyph unicode="&#xe903;" glyph-name="life-insurance" d="M512.002 756.141c38.537 0 69.776 31.24 69.776 69.776s-31.239 69.776-69.776 69.776c-38.535 0-69.774-31.24-69.774-69.776s31.239-69.776 69.774-69.776zM616.001 688.963v-123.201c0-7.589-2.856-14.902-8.001-20.48l-17.119-17.92v-165.12c0.074-7.948-2.995-15.602-8.539-21.295-5.546-5.695-13.117-8.967-21.062-9.104h-98.56c-7.945 0.137-15.516 3.409-21.062 9.104-5.544 5.693-8.613 13.347-8.539 21.295v165.12l-17.119 17.92c-5.146 5.578-8.001 12.891-7.999 20.48v123.201c0.021 6.484 1.324 12.9 3.838 18.879 3.368 8.118 9.044 15.069 16.326 19.99s15.846 7.595 24.634 7.69h118.402c8.788-0.095 17.352-2.769 24.634-7.69s12.958-11.873 16.323-19.99c2.516-5.979 3.819-12.395 3.842-18.879v0zM655.998 725.378c33.438 0 60.544 27.106 60.544 60.544s-27.106 60.544-60.544 60.544c-33.436 0-60.544-27.106-60.544-60.544s27.108-60.544 60.544-60.544zM367.998 725.378c33.438 0 60.544 27.106 60.544 60.544s-27.106 60.544-60.544 60.544c-33.436 0-60.544-27.106-60.544-60.544s27.108-60.544 60.544-60.544zM744.955 666.561v-102.081c0.014-6.977-2.683-13.689-7.519-18.718l-13.44-14.241v-135.519c0.056-3.626-0.6-7.229-1.939-10.598-1.336-3.372-3.323-6.447-5.851-9.048s-5.544-4.678-8.874-6.111-6.912-2.195-10.538-2.243h-73.919v146.56l8.32 8.802c10.885 11.42 16.908 26.622 16.798 42.398v123.201c0.021 6.37-0.784 12.716-2.399 18.879h59.359c10.773-0.186 21.032-4.636 28.53-12.374s11.622-18.132 11.471-28.905v0zM392.797 523.362l8.32-8.802v-146.56h-73.919c-3.626 0.049-7.208 0.81-10.538 2.243s-6.346 3.512-8.874 6.111c-2.527 2.602-4.515 5.676-5.851 9.048-1.338 3.37-1.994 6.973-1.939 10.598v135.519l-13.44 14.241c-4.836 5.029-7.533 11.741-7.519 18.718v102.081c-0.151 10.773 3.973 21.167 11.471 28.905s17.757 12.188 28.53 12.374h59.359c-1.615-6.163-2.42-12.509-2.399-18.879v-123.201c-0.079-15.77 5.939-30.962 16.798-42.398v0zM450.874 112.319h-199.999c-8.837 0-16-7.163-16-16v-80c0-8.837 7.163-16 16-16h199.999c8.837 0 16 7.163 16 16v80c0 8.837-7.163 16-16 16zM445.282 144.319h-194.399c-1.759 0-3.521-0.161-5.281-0.319-12.8 14.238-45.44 44.479-139.84 136.478-11.137 11.017-18.287 25.428-20.32 40.96-13.438 103.808-10.577 209.078 8.48 312.001 0.36 1.904 1.159 3.696 2.332 5.239 1.173 1.541 2.689 2.788 4.428 3.64 1.739 0.854 3.652 1.292 5.589 1.278s3.844-0.477 5.571-1.357c25.391-11.904 45.44-32.84 56.236-58.722s11.568-54.858 2.164-81.278c-3.452-10.231-3.111-21.36 0.96-31.36 1.512-7.578 3.653-15.018 6.4-22.239-34.72-7.522-44.8-54.242-17.44-85.12l79.68-89.921c2.807-3.16 6.751-5.080 10.971-5.339 4.219-0.261 8.369 1.161 11.541 3.954 3.174 2.793 5.111 6.728 5.39 10.945s-1.124 8.374-3.901 11.56l-79.841 90.079c-21.12 23.841 6.4 60.16 43.2 23.68 22.24-21.918 45.44-42.88 68.159-64.319 10.082-10.079 25.121-7.68 39.841-10.561 26.366-4.913 50.627-17.685 69.599-36.638 44.002-43.681 41.281-94.080 40.481-152.641v0zM773.125 112.319h-199.999c-8.837 0-16-7.163-16-16v-80c0-8.837 7.163-16 16-16h199.999c8.837 0 16 7.163 16 16v80c0 8.837-7.163 16-16 16zM938.561 321.438c-2.032-15.532-9.181-29.943-20.319-40.96-94.399-91.999-127.039-122.24-139.681-136.478h-0.158c-1.762 0.158-3.521 0.319-5.281 0.319h-194.399c-0.801 58.561-3.521 108.961 40.478 152.641 18.974 18.953 43.236 31.725 69.602 36.638 14.238 2.721 29.919 0.64 39.838 10.561 22.721 21.439 45.922 42.401 68.161 64.319 36.799 36.48 64.319 0.161 43.199-23.68l-79.839-90.079c-2.776-3.186-4.18-7.343-3.901-11.56 0.277-4.217 2.216-8.152 5.39-10.945 3.172-2.793 7.322-4.215 11.541-3.954 4.219 0.258 8.164 2.178 10.971 5.339l79.679 89.921c27.359 30.878 17.28 77.598-17.441 85.12 2.749 7.222 4.89 14.662 6.4 22.239 4.073 10 4.413 21.129 0.961 31.36-9.405 26.419-8.632 55.396 2.164 81.278s30.843 46.818 56.236 58.722c1.725 0.88 3.633 1.343 5.569 1.357 1.939 0.014 3.852-0.424 5.59-1.278 1.738-0.852 3.254-2.099 4.429-3.64 1.173-1.543 1.971-3.335 2.332-5.239 19.056-102.924 21.918-208.193 8.478-312.001v0z" />
<glyph unicode="&#xe904;" glyph-name="commercial" d="M408.863 959.963h-232.55v-141.808l232.55 38.758v103.050zM920.824-3.958v671.373h-378.824v-671.373h-60.001v812.233l-378.823-63.136v-749.097h-103.176v-60.001h1024v60.001h-103.176zM772.685 581.14h63.729v-59.999h-63.729v59.999zM772.685 434.865h63.729v-59.999h-63.729v59.999zM772.685 288.591h63.729v-60.001h-63.729v60.001zM772.685 142.316h63.729v-60.001h-63.729v60.001zM626.409 581.14h63.731v-59.999h-63.731v59.999zM626.409 434.865h63.731v-59.999h-63.731v59.999zM626.409 288.591h63.731v-60.001h-63.731v60.001zM626.409 142.316h63.731v-60.001h-63.731v60.001zM333.86 727.415h63.731v-60h-63.731v60zM333.86 581.14h63.731v-59.999h-63.731v59.999zM333.86 434.865h63.731v-59.999h-63.731v59.999zM333.86 288.591h63.731v-60.001h-63.731v60.001zM187.586 581.14h63.73v-59.999h-63.73v59.999zM187.586 434.865h63.73v-59.999h-63.73v59.999zM187.586 288.591h63.73v-60.001h-63.73v60.001zM189.45 142.316h206.275v-146.273h-59.999v86.272h-86.276v-86.272h-60v146.273z" />
<glyph unicode="&#xe905;" glyph-name="excellence" d="M942.405 660.156l-1.28-1.281c-11.845-12.156-28.157-18.875-45.125-18.875h-56.314l-20.498-20.483c28.5-50.565 44.812-109.11 44.812-171.517 0-194.235-157.75-352-352-352-194.235 0-352 157.765-352 352s157.765 352 352 352c62.407 0 120.968-16.313 171.532-44.797l20.468 20.485v56.312c0 16.953 6.719 33.281 18.875 45.125l1.283 1.281c-64 31.672-136.002 49.594-212.158 49.594-264.641 0-480-215.359-480-480s215.359-480 480-480c264.626 0 480 215.359 480 480 0 76.155-17.905 148.158-49.595 212.156zM771.843 572.157l-101.749-101.749c1.28-7.361 1.906-14.722 1.906-22.408 0-88.314-71.686-160-160-160s-160 71.686-160 160c0 88.314 71.686 160 160 160 7.686 0 15.047-0.642 22.408-1.922l101.749 101.765c-37.749 17.922-79.688 28.156-124.157 28.156-158.72 0-288-129.28-288-288s129.28-288 288-288c158.72 0 288 129.28 288 288 0 44.484-10.249 86.408-28.157 124.157zM593.905 398.077c-16.935-27.515-47.342-46.077-81.905-46.077-52.796 0-96 43.204-96 96 0 34.563 18.562 64.952 46.077 81.923-9.279-14.718-14.077-32-14.077-49.923 0-25.594 9.921-49.595 28.157-67.843 18.248-18.236 42.249-28.157 67.843-28.157 17.905 0 35.186 4.798 49.905 14.077zM896 704h-82.751l-246.624-246.624c-6.249-6.249-14.435-9.376-22.624-9.376s-16.375 3.126-22.624 9.376c-12.502 12.499-12.502 32.75 0 45.249l246.624 246.626v82.75l96 96v-128h128l-96-96z" />
<glyph unicode="&#xe906;" glyph-name="specialisation" d="M290.882 512c9.375-55.438 42.499-102.782 88.594-131.28-14.782 37.936-23.657 83.875-26.437 131.28h-62.157zM480.006 352c20.438 0 56.034 60.22 62.627 160h-125.25c6.593-99.78 42.189-160 62.624-160zM290.882 575.997h62.157c2.78 47.408 11.656 93.345 26.437 131.283-46.095-28.5-79.219-75.845-88.594-131.283zM480.006 736c-20.435 0-56.031-60.219-62.624-160h125.25c-6.593 99.781-42.189 160-62.627 160zM672-32v64h96c56.531 0 96 44.282 96 107.656v84.344h64c0.22 0.030 0.437 0.030 0.626 0 17.685 0 32 14.312 32 32 0 7.313-2.44 14.062-6.563 19.438l-90.064 180.125v56.437c0 233.281-171.219 416-389.813 416-226.187 0-410.187-186.625-410.187-416 0-87.061 33.594-156.874 65.094-215.438l3.594-6.686c58.5-108.282 89.25-184.814 91.312-225.876v-96h448zM480 288c-141.155 0-256 114.845-256 256s114.845 256 256 256c141.155 0 256-114.844 256-256s-114.845-256-256-256zM580.53 707.28c14.782-37.938 23.657-83.874 26.437-131.283h62.157c-9.376 55.438-42.502 102.782-88.594 131.283zM580.53 380.72c46.092 28.497 79.218 75.842 88.594 131.28h-62.157c-2.78-47.405-11.656-93.344-26.437-131.28z" />
<glyph unicode="&#xe907;" glyph-name="business" d="M187.769 567.45c18.851 0 34.133 15.283 34.133 34.134s-15.282 34.132-34.133 34.132c-18.851 0-34.133-15.281-34.133-34.132s15.282-34.134 34.133-34.134zM237.272 465.057h-99.017c-10.342 0-18.755-7.782-18.755-17.338v-72.020c21.195-8.313 44.167-13.037 68.264-13.037s47.067 4.727 68.264 13.037v72.020c0 9.556-8.413 17.338-18.755 17.338zM597.336 789.314c18.851 0 34.134 15.282 34.134 34.133s-15.283 34.133-34.134 34.133c-18.851 0-34.132-15.282-34.132-34.133s15.281-34.133 34.132-34.133zM646.863 686.92h-99.016c-10.342 0-18.755-7.782-18.755-17.338v-72.020c21.194-8.313 44.167-13.037 68.264-13.037s47.069 4.727 68.264 13.037v72.020c0 9.556-8.413 17.338-18.755 17.338zM819.2 345.598c18.853 0 34.134 15.283 34.134 34.134s-15.281 34.132-34.134 34.132c-18.851 0-34.132-15.281-34.132-34.132s15.281-34.134 34.132-34.134zM868.703 243.193h-99.016c-10.342 0-18.755-7.782-18.755-17.338v-72.020c21.194-8.313 44.167-13.037 68.264-13.037s47.069 4.727 68.264 13.037v72.020c0 9.539-8.413 17.338-18.755 17.338zM819.207 516.254c-2.285 0-4.506-0.256-6.758-0.342l-72.378 134.786c25.977 30.41 42.273 69.171 44.49 111.665l107.364-51.83c-2.749-7.389-4.454-15.29-4.454-23.619 0-37.648 30.618-68.264 68.264-68.264 37.648 0 68.264 30.618 68.264 68.264 0 37.648-30.618 68.264-68.264 68.264-16.775 0-31.946-6.314-43.843-16.384l-129.327 62.446c-15.77 100.981-112.037 175.644-220.972 155.421-74.512-13.824-134.449-73.572-148.527-148.031-1.811-9.558-2.835-19.011-3.228-28.329l-101.15-86.543c-28.602 24.164-64.475 39.934-103.864 43.5v88.625c29.354 7.628 51.198 34.115 51.198 65.842 0 37.649-30.616 68.264-68.263 68.264-37.649 0-68.264-30.617-68.264-68.264 0-31.725 21.845-58.212 51.198-65.842v-88.625c-95.537-8.67-170.66-89.103-170.66-186.858 0-65.738 34.031-123.592 85.331-157.144v54.474c0 28.381 23.739 51.472 52.888 51.472h99.016c29.165 0 52.89-23.091 52.89-51.472v-54.474c42.629 27.869 72.99 72.65 82.155 124.667l77.019-60.037c-3.568-8.278-5.597-17.375-5.597-26.947 0-37.648 30.615-68.264 68.264-68.264 37.646 0 68.264 30.615 68.264 68.264s-30.618 68.264-68.264 68.264c-15.702 0-30.003-5.546-41.558-14.49l-95.416 74.373c-1.913 41.761-17.322 80.058-42.256 110.366l80.040 68.504c9.539-51.266 39.969-95.263 82.12-122.823v54.472c0 28.381 23.741 51.472 52.89 51.472h99.016c29.165 0 52.887-23.091 52.887-51.472v-17.885c0-7.149 4.131-12.663 9.574-15.514l67.137-125.042c-82.942-19.437-144.959-93.847-144.959-182.626 0-21.213 3.875-41.451 10.394-60.465l-69.099-51.831c-32.323 56.778-93.284 95.23-163.17 95.23-97.755 0-178.203-75.127-186.855-170.661h-88.637c-7.628 29.354-34.133 51.198-65.842 51.198-37.647 0.005-68.264-30.613-68.264-68.261s30.617-68.264 68.264-68.264c31.709 0 58.212 21.846 65.842 51.198h88.863c5.342-58.57 37.442-109.477 84.238-140.079v54.474c0 28.381 23.741 51.472 52.89 51.472h99.016c29.165 0 52.887-23.091 52.887-51.472v-54.474c40.055 26.179 69.306 67.291 80.33 115.298l111.851-54.014c-2.749-7.389-4.454-15.293-4.454-23.619 0-37.648 30.618-68.264 68.264-68.264 37.648 0 68.264 30.618 68.264 68.264s-30.618 68.264-68.264 68.264c-16.775 0-31.946-6.314-43.843-16.384l-127.209 61.421c0.067 2.081 0.391 4.077 0.391 6.16 0 21.229-3.703 41.558-10.221 60.602l68.964 51.728c14.864-26.042 35.684-48.279 60.737-64.663v54.474c0 28.381 23.741 51.472 52.89 51.472h99.016c29.165 0 52.887-23.091 52.887-51.472v-54.474c51.302 33.552 85.332 91.406 85.332 157.144 0 103.491-84.222 187.713-187.727 187.713zM187.762 533.318c-37.649 0-68.264 30.618-68.264 68.264 0 37.648 30.617 68.266 68.264 68.266s68.264-30.618 68.264-68.266c0-37.646-30.633-68.264-68.264-68.264zM597.348 755.177c-37.648 0-68.264 30.617-68.264 68.264s30.618 68.264 68.264 68.264c37.646 0 68.264-30.617 68.264-68.264s-30.634-68.264-68.264-68.264zM409.621 106.666c-37.648 0-68.264 30.618-68.264 68.266s30.615 68.264 68.264 68.264c37.646 0 68.264-30.618 68.264-68.264 0-37.651-30.634-68.266-68.264-68.266zM819.207 311.461c-37.648 0-68.264 30.615-68.264 68.264s30.618 68.264 68.264 68.264c37.646 0 68.264-30.618 68.264-68.264 0-37.665-30.634-68.264-68.264-68.264zM409.609 140.802c18.851 0 34.134 15.281 34.134 34.134 0 18.851-15.283 34.132-34.134 34.132s-34.132-15.281-34.132-34.132c0-18.853 15.281-34.134 34.132-34.134zM459.136 38.409h-99.016c-10.342 0-18.755-7.782-18.755-17.341v-72.020c21.194-8.311 44.165-13.037 68.264-13.037 24.097 0 47.067 4.729 68.264 13.037v72.020c0 9.539-8.413 17.341-18.755 17.341z" />
<glyph unicode="&#xe908;" glyph-name="experience" d="M420.050 438.001h60.006v-60.006h-60.006v60.006zM60.786 498.214h509.933c10.68 163.041 170.086 276.092 329.359 229.266v40.548c0 16.57-13.432 30.002-30.003 30.002h-269.972v90.008c0 16.57-13.432 30.002-30.003 30.002h-240.12c-16.568 0-30.001-13.432-30.001-30.002v-90.008h-269.976c-16.57 0-30.002-13.432-30.002-30.002v-218.092c4.736-29.284 30.186-51.722 60.786-51.722zM359.982 858.037h180.116v-60.006h-180.116v60.006zM697.062 259.21c-63.496 37.315-110.543 101.724-123.389 179h-33.623v-90.217c0-16.571-13.432-30.003-30.003-30.003h-120.008c-16.571 0-30.003 13.432-30.003 30.003v90.217h-299.25c-22.136 0-42.89 5.975-60.786 16.351v-393.595c0-16.571 13.432-30.003 30.002-30.003h668.207c-2.074 15.793-0.732 5.967-1.147 228.247zM966.397 620.314c-76.818 76.818-201.807 76.818-278.625 0-101.12-101.117-63.624-273.078 69.307-323.402v-69.030h140.012v69.030c132.887 50.307 170.435 222.275 69.307 323.402zM827.085 344.079c-0.003 0 0.003 0 0 0-75.835 0-136.922 61.064-136.922 136.922 0 75.837 61.064 136.919 136.919 136.919 75.837 0 136.922-61.064 136.922-136.919 0-75.832-61.064-136.922-136.919-136.922zM757.074 47.964c0-38.602 31.406-70.006 70.008-70.006 38.6 0 70.006 31.406 70.006 70.006v119.91h-140.014v-119.91z" />
<glyph unicode="&#xe909;" glyph-name="link" d="M768 448c-76.787 0-145.498-33.958-192.41-87.501l-162.496 100.006c8.32 22.835 13.58 47.134 13.58 72.835 0 16.792-2.408 32.947-6.080 48.665l216 99.673c31.283-38.17 78.195-63.002 131.418-63.002 94.208 0 170.662 76.415 170.662 170.662s-76.467 170.662-170.675 170.662c-94.285 0-170.662-76.415-170.662-170.662 0-10.408 1.293-20.455 3.034-30.375l-215.746-99.585c-38.873 52.713-100.835 87.298-171.287 87.298-117.838-0.013-213.338-95.5-213.338-213.338s95.5-213.338 213.338-213.338c61.325 0 116.25 26.253 155.162 67.75l162.252-99.84c-12.006-29.658-18.752-61.952-18.752-95.91 0-141.414 114.586-256 256-256 141.338 0 256 114.586 256 256s-114.662 256-256 256z" />
<glyph unicode="&#xe90a;" glyph-name="game" d="M1023.792 276.6c-2.202 95-31.202 221.798-77.601 339.2-21.2 53.799-44.201 99.999-66.4 133.399-29.6 44.8-56.2 65.6-84.2 65.6-15.8 0-30 0.6-43.598 1.2-34.4 1.4-64.202 2.6-90.001-8-26.6-11-41.999-31.6-51.399-52.2h-197.201c-9.4 20.8-24.799 41.4-51.399 52.4-26.001 10.6-55.6 9.4-90.001 8-13.8-0.6-28-1.2-43.6-1.2-28 0-54.6-20.8-84.2-65.6-22.2-33.6-45-79.8-66.4-133.599-46.4-117.203-75.4-244.001-77.6-339.2-3.8-166.801 74.8-195.202 122-197.4h4.2c47.2 0 99 36.198 158 110.197 27.799 34.801 50.2 69.602 62.401 89.202h330.4c11.999-19.601 34.599-54.2 62.401-89.202 60.997-76.198 113.998-112.399 162.199-110.197 47.2 2 125.801 30.6 122.001 197.4v0zM716.192 499.998c0-17.598-14.399-32-32-32h-7.8c-17.601 0-32 14.402-32 32 0 17.601 14.399 32 32 32h7.8c17.601-0.199 32-14.2 32-32zM379.591 499.998c0-17.598-14.399-32-32-32h-40.4v-40.4c0-17.598-14.399-32-31.999-32s-32 14.402-32 32v40.4h-40.4c-17.6 0-32 14.402-32 32 0 17.601 14.4 32 32 32h40.4v40.4c0 17.601 14.4 32 32 32s31.999-14.399 31.999-32v-40.4h40.4c17.8-0.199 32-14.2 32-32zM780.791 572.6v-7.999c0-17.601-14.399-32-32-32s-32 14.399-32 32v7.999c0 17.601 14.399 32 32 32s32-14.399 32-32zM780.791 435.2v-7.8c0-17.601-14.399-32-32-32s-32 14.399-32 32v7.8c0 17.598 14.399 32 32 32 17.601 0.199 32-14.2 32-32zM853.191 499.998c0-17.598-14.399-32-32-32h-7.999c-17.601 0-32 14.402-32 32 0 17.601 14.399 32 32 32h7.999c17.8-0.199 32-14.2 32-32zM584.791 691.999c-19.799-31.8-48.601-43.801-72.8-43.801s-52.998 12.201-72.8 43.801h145.601z" />
<glyph unicode="&#xe90b;" glyph-name="heathy" d="M511.407 928.082c-2.31-0.121-4.572-0.714-6.626-1.785 0 0-190.015-94.78-426.968-126.374-7.961-1.1-13.872-7.933-13.813-15.969v-335.876c0-205.761 112.65-327.813 223.719-395.689 111.069-67.873 221.908-84.218 221.908-84.218 1.572-0.241 3.174-0.241 4.75 0 0 0 110.836 16.345 221.904 84.218 111.071 67.876 223.72 189.928 223.72 395.689v335.876c0.066 8.036-5.852 14.869-13.812 15.969-236.954 31.594-426.969 126.374-426.969 126.374-2.412 1.246-5.099 1.863-7.813 1.785v0zM512 736.018c158.868 0 287.937-129.069 287.937-287.936s-129.069-288.093-287.937-288.093c-158.868 0-287.938 129.226-287.938 288.093s129.071 287.936 287.938 287.936v0zM447.967 592.050v-80.095h-79.935c-8.837 0.033-16.029-7.102-16.065-15.938v-96.030c0.033-8.837 7.228-15.971 16.065-15.938h79.935v-80.092c0.033-8.849 7.246-15.989 16.095-15.938h95.874c8.837-0.033 16.029 7.102 16.065 15.938v80.092h79.968c8.837-0.030 16.026 7.102 16.062 15.938v96.030c-0.033 8.837-7.225 15.971-16.062 15.938h-79.968v80.095c-0.033 8.837-7.228 15.971-16.065 15.935h-96.702c-9.026-0.804-15.273-7.701-15.267-15.935v0z" />
<glyph unicode="&#xe90c;" glyph-name="people" d="M959.693 305.86h-34.334c-10.966 0-21.275 5.246-27.726 14.116l-192.358 264.388c-15.372 20.113-39.243 31.913-64.56 31.913h-42.291c-9.135 0-16.544 7.406-16.544 16.544v39.19c0 7.738 3.957 14.893 10.424 19.142 40.213 26.418 66.614 72.146 66.009 123.998-0.934 79.852-66.982 144.78-146.839 144.414-80.408-0.37-145.477-65.666-145.477-146.161 0-51.108 26.229-96.091 65.967-122.217 6.484-4.263 10.475-11.421 10.475-19.182v-39.184c0-9.135-7.406-16.544-16.544-16.544h-53.51c-25.317 0-49.188-11.8-64.56-31.913l-192.053-266.508c-6.444-8.942-16.795-14.243-27.82-14.243h-23.647c-35.513 0-64.304-28.789-64.304-64.304s28.789-64.304 64.304-64.304h63.171c-38.974-21.775-65.344-63.413-65.344-111.227 0-70.331 57.015-127.343 127.345-127.343h539.488l-423.81 234.824c-33.69 13.068-69.579 19.866-105.902 19.866h-2.497c4.978 3.976 9.489 8.599 13.352 13.842l122.108 181.829v-160.271c0.593-0.28 1.19-0.545 1.771-0.864l179.45-99.461 167.445 100.451v160.145l122.422-179.582c4.039-5.481 8.779-10.288 14.029-14.381-46.297-0.693-95.187-13.414-136.451-36.331v0.202l-106.839-64.093 274.206-151.977c58.543 11.475 102.719 63.042 102.719 124.943v0.611c0 48.035-26.603 89.555-65.87 111.062h74.598c35.515 0 64.304 28.789 64.304 64.304 0 35.518-28.792 64.307-64.307 64.307v0z" />
<glyph unicode="&#xe90d;" glyph-name="work" d="M474.844 323.177v120.088h-60.829v-122.75l-83.016-48.11c8.439-19.468 13.204-40.499 13.929-62.235l101.798 59 97.265-56.383c1.048 21.603 6.135 42.454 14.806 61.735l-83.953 48.655zM258.96 133.915c16.359 19.766 25.266 44.375 25.266 70.361 0 29.53-11.5 57.296-32.383 78.179-43.109 43.107-113.258 43.107-156.359 0-40.594-40.596-42.953-105.141-7.109-148.531-31.344-15.986-58.203-40.611-76.633-71.695-15.43-26.025-15.664-57.32-0.633-83.712 15.172-26.618 42.484-42.514 73.070-42.514h178.961c30.586 0 57.905 15.896 73.069 42.514 15.041 26.392 14.797 57.687-0.632 83.712-18.42 31.078-45.281 55.709-76.617 71.686v0zM800.491 133.915c16.357 19.766 25.272 44.375 25.272 70.361 0 29.53-11.508 57.296-32.392 78.179-20.881 20.884-48.646 32.382-78.179 32.382-29.53 0-57.296-11.499-78.179-32.382-20.881-20.884-32.389-48.649-32.389-78.188 0-25.976 8.912-50.586 25.272-70.352-31.343-15.983-58.202-40.608-76.625-71.686-15.429-26.025-15.664-57.32-0.632-83.712 15.164-26.624 42.484-42.523 73.077-42.523h178.953c30.587 0 57.907 15.899 73.071 42.523 15.038 26.392 14.806 57.681-0.632 83.712-18.414 31.078-45.273 55.712-76.616 71.686v0zM479.59 636.22c19.39 19.39 19.39 50.938 0 70.336-9.695 9.688-22.438 14.539-35.171 14.539s-25.47-4.852-35.165-14.539c-19.399-19.398-19.399-50.946 0-70.342 19.393-19.393 50.938-19.393 70.337 0.006zM210.853 443.377h203.132v121.751c-17.501 4.975-34.009 14.318-47.767 28.076-43.107 43.11-43.107 113.259 0 156.368 43.11 43.109 113.257 43.109 156.368 0 43.101-43.109 43.101-113.258 0-156.368-13.758-13.758-30.265-23.1-47.773-28.076v-121.751h203.147c88.428 0 160.382 71.945 160.382 160.382 0 85.867-67.819 156.187-152.712 160.202-10.397 50.023-36.162 95.703-74.249 130.82-45.601 42.055-104.906 65.219-166.975 65.219s-121.374-23.164-166.976-65.219c-38.086-35.125-63.851-80.797-74.25-130.82-84.882-4.023-152.71-74.344-152.71-160.202 0-88.437 71.945-160.382 160.382-160.382v0z" />
<glyph unicode="&#xe90e;" glyph-name="apply" d="M320 736c0 33.948 13.485 66.505 37.491 90.509s56.562 37.491 90.509 37.491h128c33.948 0 66.502-13.485 90.509-37.491s37.491-56.562 37.491-90.509v-8.747c39.808-3.626 79.232-8.405 118.355-14.25 62.042-9.302 105.645-63.275 105.645-124.459v-129.408c0-51.669-31.315-100.352-82.605-117.419-107.526-35.695-220.099-53.832-333.395-53.717-116.48 0-228.565 18.861-333.397 53.717-51.286 17.067-82.603 65.75-82.603 117.419v129.408c0 61.184 43.605 115.2 105.643 124.459 39.308 5.878 78.777 10.63 118.357 14.25v8.747zM640 736v-3.84c-85.255 5.178-170.745 5.178-256 0v3.84c0 16.974 6.743 33.252 18.745 45.255s28.281 18.745 45.255 18.745h128c16.974 0 33.252-6.743 45.255-18.745s18.745-28.281 18.745-45.255zM512 384c8.487 0 16.627 3.372 22.627 9.373s9.373 14.14 9.373 22.627c0 8.487-3.372 16.626-9.373 22.627s-14.14 9.373-22.627 9.373c-8.487 0-16.626-3.372-22.627-9.373s-9.373-14.14-9.373-22.627c0-8.487 3.372-16.627 9.373-22.627s14.14-9.373 22.627-9.373zM128 174.931v119.296c9.72-5.318 19.902-9.747 30.421-13.229 114.035-37.862 233.423-57.107 353.579-56.998 123.392 0 242.349 19.968 353.581 56.96 10.752 3.584 20.902 8.064 30.419 13.267v-119.296c0-61.952-44.672-116.397-107.648-124.717-90.451-12.032-182.699-18.214-276.352-18.214-92.418-0.019-184.736 6.067-276.352 18.214-62.976 8.32-107.648 62.765-107.648 124.717z" />
<glyph unicode="&#xe90f;" glyph-name="solution" d="M512 896c-176.64 0-320-143.375-320-320 0-150.094 117.125-241.282 168.312-320h303.375c51.188 78.718 168.312 169.906 168.312 320 0 176.625-143.375 320-320 320zM640 589.125c-5.126 1.922-10.234 2.873-15.998 2.873-26.564 0-48.002-21.435-48.002-47.998s21.438-47.998 48.002-47.998c5.765 0 10.872 0.952 15.998 2.873v-82.875h-82.875c1.593-5.126 2.876-10.234 2.876-16.002 0-26.561-21.438-47.998-48.002-47.998s-48.002 21.438-48.002 47.998c0 5.768 1.283 10.875 2.876 16.002h-82.875v82.875c5.126-1.922 10.234-2.873 15.998-2.873 26.564 0 48.002 21.435 48.002 47.998s-21.438 47.998-48.002 47.998c-5.765 0-10.872-0.952-15.998-2.873v82.875h82.875c-1.593 5.125-2.876 10.234-2.876 16 0 26.563 21.438 48 48.002 48s48.002-21.437 48.002-48c0-5.766-1.283-10.875-2.876-16h82.875v-82.875zM128 576c0 17.688-14.328 32-32 32h-32c-17.672 0-32-14.312-32-32s14.328-32 32-32h32c17.672 0 32 14.312 32 32zM240.453 847.531c12.5 12.469 12.5 32.75 0.015 45.25l-25.828 25.844c-12.5 12.5-32.766 12.5-45.266 0-12.5-12.469-12.5-32.75-0.016-45.25l25.828-25.844c6.25-6.25 14.453-9.375 22.641-9.375s16.375 3.125 22.625 9.375zM828.75 847.5l25.874 25.844c12.502 12.5 12.502 32.781 0.033 45.281-12.502 12.5-32.783 12.469-45.282 0.031l-25.877-25.844c-12.499-12.5-12.499-32.781-0.030-45.281 6.249-6.25 14.469-9.375 22.658-9.375 8.186 0 16.375 3.125 22.624 9.344zM992 576c0 17.688-14.312 32-32 32h-32c-17.688 0-32-14.312-32-32s14.312-32 32-32h32c17.688 0 32 14.312 32 32zM854.624 233.342c12.502 12.502 12.502 32.75 0.033 45.282l-25.844 25.877c-12.502 12.499-32.783 12.469-45.282 0.030-12.502-12.499-12.502-32.75-0.033-45.282l25.844-25.874c6.252-6.249 14.469-9.376 22.658-9.376s16.375 3.126 22.624 9.342zM214.625 233.376l25.859 25.844c12.5 12.469 12.5 32.75 0.016 45.249-12.5 12.502-32.766 12.502-45.266 0l-25.859-25.844c-12.5-12.469-12.5-32.75-0.016-45.249 6.25-6.249 14.453-9.376 22.641-9.376s16.375 3.126 22.625 9.376zM672 96v32c17.688 0 32 14.312 32 32s-14.312 32-32 32h-320c-17.673 0-32-14.312-32-32s14.327-32 32-32v-32c-17.673 0-32-14.312-32-32s14.327-32 32-32h12.219l23.157-46.312c5.421-10.845 16.498-17.688 28.624-17.688h192c12.125 0 23.188 6.843 28.624 17.688l23.157 46.312h12.219c17.688 0 32 14.312 32 32s-14.312 32-32 32z" />
<glyph unicode="&#xe910;" horiz-adv-x="999" d="M126.391 50.13c-1.796 0-5.387 0-7.183 1.857-98.767 53.681-111.338 122.172-111.338 125.874v135.133c0 3.702 0 7.404 3.592 9.256 1.796 3.702 5.387 3.702 8.979 3.702 68.239-7.404 96.972 18.511 96.972 18.511 5.387 5.554 12.57 5.554 16.162 0 1.796 0 28.732-25.916 96.971-18.511 3.591 0 7.183 0 8.979-3.702 3.591-1.852 5.387-5.554 5.387-9.256v-135.133c-1.796-3.702-14.366-72.193-113.133-125.874-1.796-1.857-3.591-1.857-5.387-1.857z" />
<glyph unicode="&#xe911;" d="M817.667 528.194h-91.133c-22.020 0-39.934 17.888-39.934 39.875v18.761c0 16.288 9.761 30.783 24.87 36.93l91.133 37.074c25.163 11.092 55.799-9.476 54.997-36.93v-55.834c0-21.985-17.912-39.875-39.933-39.875v0zM812.508 636.55l-91.133-37.074c-5.175-2.105-8.516-7.067-8.516-12.645v-18.761c0-7.529 6.135-13.656 13.676-13.656h91.133c7.54 0 13.676 6.127 13.676 13.656v55.834c0.21 7.343-5.426 18.077-18.835 12.645v0z" />
<glyph unicode="&#xe912;" glyph-name="quotes" d="M0 374.854h219.429l-146.287-292.571h219.427l146.287 292.571v438.856h-438.856v-438.856zM585.12 813.71v-438.856h219.429l-146.287-292.571h219.429l146.287 292.571v438.856h-438.858z" />
<glyph unicode="&#xe913;" d="M262.322 960h342.62l290.031-302.589v-588.2c0-73.577-59.637-133.211-133.211-133.211h-499.44c-73.577 0-133.211 59.634-133.211 133.211v757.579c0 73.576 59.633 133.21 133.211 133.21v0z" />
<glyph unicode="&#xe914;" d="M604.501 960v-300.103h290.441l-290.441 300.103z" />
<glyph unicode="&#xe915;" d="M252.778 229.342v169.518h60.048c12.009 0 23.191-1.795 33.545-5.109 10.354-3.45 19.74-8.42 28.163-15.047 8.42-6.625 15.047-15.462 19.877-26.505 4.833-11.042 7.316-23.743 7.316-38.098s-2.483-27.056-7.316-38.098c-4.83-11.045-11.457-19.88-19.877-26.505-8.422-6.625-17.809-11.597-28.163-15.047-10.354-3.314-21.532-5.109-33.545-5.109h-60.048zM295.157 266.2h12.561c6.764 0 13.116 0.828 18.773 2.347 5.8 1.655 11.045 4.278 16.014 7.731 4.969 3.45 8.832 8.42 11.594 14.908 2.898 6.349 4.278 14.080 4.278 22.915s-1.38 16.566-4.278 23.054c-2.762 6.349-6.625 11.318-11.594 14.768-4.969 3.59-10.214 6.073-16.014 7.731-5.658 1.519-12.009 2.347-18.773 2.347h-12.561v-95.801zM504.567 227.41c-25.537 0-46.657 8.283-63.36 24.707-16.703 16.43-24.986 37.134-24.986 61.98 0 24.849 8.283 45.557 24.986 61.983s37.823 24.707 63.36 24.707c25.125 0 45.969-8.283 62.672-24.707 16.566-16.43 24.849-37.134 24.849-61.983 0-24.846-8.283-45.554-24.849-61.98-16.703-16.424-37.547-24.707-62.672-24.707zM471.99 278.346c8.42-9.387 19.189-14.080 32.302-14.080s23.743 4.693 32.165 14.080c8.42 9.526 12.561 21.399 12.561 35.755s-4.142 26.229-12.561 35.755c-8.42 9.387-19.052 14.080-32.165 14.080s-23.882-4.693-32.302-14.080c-8.42-9.526-12.7-21.399-12.7-35.755s4.281-26.229 12.7-35.755zM692.858 227.41c-24.71 0-45.278 7.728-61.568 22.915-16.427 15.32-24.57 36.58-24.57 63.775 0 27.056 8.283 48.316 24.849 63.639 16.703 15.323 36.995 23.051 61.289 23.051 21.951 0 39.893-5.382 54.113-16.287 14.083-10.769 22.226-25.125 24.297-43.071l-42.795-8.695c-1.795 9.387-6.073 16.978-12.7 22.639-6.625 5.66-14.356 8.559-23.191 8.559-12.149 0-22.226-4.281-30.37-12.976-8.144-8.835-12.285-20.981-12.285-36.858 0-15.875 4.142-28.021 12.146-36.719 8.146-8.835 18.224-13.113 30.51-13.113 8.832 0 16.427 2.483 22.639 7.452 6.209 4.969 10.078 11.594 11.733 19.877l43.759-9.938c-4.002-17.118-12.84-30.37-26.641-39.893-13.668-9.526-30.783-14.356-51.214-14.356z" />
<glyph unicode="&#xe916;" glyph-name="3heathy" d="M1013.293 727.43c-17.053 66.883-53.405 124.555-105.123 166.781-50.384 41.133-112.104 63.789-173.791 63.789-47.297 0-92.407-12.734-134.084-37.844-32.916-19.836-62.524-46.812-88.383-80.484-58.823 76.664-136.478 118.328-222.368 118.328-61.664 0-123.359-22.656-173.734-63.789-51.703-42.227-88.047-99.891-105.102-166.773-12.508-49.055-18.203-117.899 6.477-200.695h154.977l55.961 111.929c5.086 10.165 15.469 16.586 26.828 16.586 11.367 0 21.75-6.421 26.828-16.586l101.688-203.366 101.686 203.366c5.078 10.165 15.462 16.586 26.829 16.586 11.36 0 21.742-6.421 26.829-16.586l55.962-111.929h208.944c16.571 0 29.991-13.429 29.991-29.991 0-16.571-13.42-30-29.991-30h-227.485c-11.36 0-21.742 6.421-26.829 16.586l-37.421 74.851-101.686-203.369c-5.087-10.162-15.471-16.577-26.829-16.577-11.366 0-21.751 6.415-26.829 16.577l-101.68 203.369-37.43-74.86c-5.086-10.156-15.469-16.577-26.828-16.577h-151.047c10.023-22.236 22.274-45.252 37.149-68.963 81.656-130.226 223.219-250.889 420.735-358.632 4.475-2.446 9.421-3.662 14.366-3.662s9.882 1.217 14.36 3.656c197.578 107.755 339.179 228.412 420.873 358.632 88.266 140.704 84.697 256.922 66.156 329.648z" />
<glyph unicode="&#xe917;" glyph-name="1home" d="M147.898 206.634c-16.56 0-30 13.438-30 30s13.44 30 30 30c16.58 0 30-13.438 30-30s-13.42-30-30-30zM347.518 38.825l-104.5 305.655c-5.36 15.682-22.42 24.043-38.080 18.682l-184.64-63.124c-7.54-2.581-13.738-8.041-17.238-15.179-3.5-7.141-4.022-15.384-1.442-22.923l104.48-305.637c4.26-12.46 15.92-20.299 28.4-20.299 3.2 0 6.48 0.521 9.7 1.62l184.641 63.102c7.517 2.581 13.719 8.041 17.218 15.182 3.518 7.159 4.042 15.399 1.461 22.92zM1005.342 311.703l-217.019-154.368c-53.278-37.921-116.019-57.964-181.438-57.964-0.301 0-0.62-0.021-0.922-0.021l-213.438-6.599-92.699 271.152c-0.942 2.741-2 5.421-3.18 8.020 30.918 22.022 72.119 38.204 126.497 38.204 50.402 0 97.22-20.182 131.822-56.823 3.819-4.602 12.598-9.4 21.82-9.4h125.759c22.118 0 40.12-17.983 40.12-40.105 0-21.838-17.661-40.081-40.12-40.081h-185.461c-16.559 0-30-13.442-30-30 0-16.583 13.442-30.003 30-30.003h185.461c26.757 0 51.899 10.421 70.776 29.323 13.463 13.46 22.603 30.078 26.763 48.182l153.519 102.725c0.16 0.099 0.34 0.217 0.5 0.34 19.2 13.42 45.881 9.761 60.579-9.162 15.562-20.061 11.183-48.842-9.339-63.422zM575.822 497.89h80.002v178.668h-80.002v-178.668zM895.599 790.344c-93.142 58.28-263.84 165.128-263.84 165.128-12.258 7.642-26.6 4.248-32.16-0.2-246.314-154.174-181.621-113.684-263.52-164.928-14.038-8.8-18.299-27.322-9.499-41.362 5.683-9.1 15.459-14.080 25.44-14.080 10.547 0 14.869 3.936 33.819 15.8v-222.809c0-16.565 13.442-30.003 30-30.003h100v208.67c0 16.562 13.442 30.002 30 30.002h140.002c16.559 0 30-13.44 30-30.002v-208.67h99.997c16.562 0 30 13.438 30 30.003v222.809c18.67-11.69 23.148-15.8 33.819-15.8 9.981 0 19.76 4.98 25.44 14.080 8.8 14.040 4.542 32.562-9.499 41.362z" />
<glyph unicode="&#xe918;" glyph-name="2people" d="M750.417 622.863c0-19.962-7.758-38.722-21.877-52.82-14.101-14.101-32.861-21.88-52.802-21.88h-3.677v149.36h3.677c41.18 0 74.68-33.5 74.68-74.659zM140.772 697.522v-149.36h-3.68c-19.94 0-38.7 7.779-52.8 21.88-14.12 14.098-21.88 32.858-21.88 52.82 0 41.159 33.5 74.659 74.68 74.659h3.68zM494.065 666.002c-31.199 0-61.341 8.32-87.66 23.66-26.32-15.34-56.459-23.66-87.66-23.66h-117.979v-110.361c0-113.378 92.26-205.637 205.64-205.637s205.64 92.259 205.64 205.637v110.361h-117.98zM470.341 467.221c-18.598-13.878-40.719-21.218-63.94-21.218-23.218 0-45.339 7.34-63.94 21.218-13.279 9.9-16.020 28.702-6.099 41.981 9.9 13.279 28.699 16.020 41.981 6.099 8.159-6.078 17.86-9.3 28.058-9.3 10.201 0 19.902 3.223 28.061 9.3 13.282 9.921 32.081 7.18 41.981-6.099 9.921-13.279 7.18-32.081-6.102-41.981zM1018.205 84.040c-8.638-14.318-27.259-18.658-41.198-10.159l-6.861 4.141v-112.020c0-16.562-13.442-30-30-30h-90.88v118.799c0 16.559-13.442 30-30 30-16.58 0-30-13.442-30-30v-118.799h-90.883c-16.58 0-30 13.438-30 30v112.020l-6.858-4.141c-13.96-8.499-32.581-4.159-41.201 10.159-8.559 14.161-4.021 32.62 10.159 41.183l173.261 104.758c9.421 5.74 21.621 5.74 31.039 0l173.261-104.758c14.179-8.562 18.721-27.022 10.162-41.183zM442.513 960h-72.12c-113.981 0-206.741-92.74-206.741-206.74-0.278-14.95 11.82-27.276 26.78-27.26h128.361c35.138 0 66.638 15.96 87.66 41.020 21.019-25.060 52.519-41.020 87.66-41.020h128.358c14.959-0.016 27.058 12.31 26.781 27.26 0 114-92.759 206.74-206.74 206.74zM376.456 135.981v-199.978h-233.98v91.44c0 17.029-14.194 30.759-31.42 29.967-16.148-0.744-28.58-14.649-28.58-30.813v-90.594h-51.002c-17.664 0-31.506 15.185-29.872 32.774l14.996 161.406c5.16 55.441 39.7 104.499 90.14 128.060l30.96 14.441 238.758-136.704zM335.818 228.382l-135.7 77.722 55.86 30.72c11.58-7.981 23.82-15.080 36.62-21.161l43.22-87.281zM441.799 292.337l-35.34-71.358-35.34 71.358c11.559-1.539 23.338-2.34 35.319-2.34s23.802 0.801 35.361 2.34zM612.759 306.098l-135.701-77.719 43.222 87.278c12.8 6.102 25.040 13.182 36.62 21.182l55.859-30.741zM608.37-34.003c0-10.52 1.822-20.622 5.162-30h-177.122v199.978l238.74 136.701 30.961-14.438c5.18-2.4 10.201-5.102 15.062-8.062l-121.742-73.62c-20.558-12.399-35.060-32.12-40.818-55.48-5.74-23.299-2.081-47.438 10.297-67.979 9.294-15.483 23.17-27.714 39.46-35.241v-51.86z" />
<glyph unicode="&#xe919;" glyph-name="4dola" d="M581.629 279.784c-3.825 4.186-8.665 7.319-13.664 9.93-10.885 5.677-22.79 9.12-34.611 12.228v-91.6c19.188 2.168 41.213 9.132 51.287 27.043 4.81 8.556 5.768 19.070 3.81 28.594-1.063 5.162-3.259 9.9-6.822 13.806zM584.59 237.207c0.036 0.066 0.060 0.105 0.099 0.175-0.033-0.057-0.066-0.114-0.099-0.175zM443.365 426.213c-3.301-4.816-5.37-10.288-5.939-16.104-0.572-5.828-0.253-12.312 1.964-17.8 2.108-5.228 6.523-9.090 11.083-12.198 5.114-3.479 10.74-6.195 16.471-8.499 4.807-1.937 10.213-3.786 16.044-5.575v82.89c-14.728-3.144-30.813-9.851-39.623-22.715zM585.026 238.059c-0.12-0.214-0.253-0.44-0.379-0.675 0.151 0.274 0.268 0.476 0.379 0.675zM585.529 238.917c0.030 0.057 0.036 0.063 0 0v0zM565.621 737.194c77.896 65.438 129.949 212.86 97.915 219.308-42.562 8.571-134.987-29.011-179.661-35.632-63.358-7.65-132.367 68.708-171.104 26.146-31.494-34.606 22.579-160.455 107.18-215.281-252.401-124.053-607.17-746.805 11.743-791.991 856.371-62.524 427.556 676.566 133.927 797.451zM639.166 246.064c-2.632-24.281-15.499-46.237-34.732-61.142-20.308-15.736-45.779-23.058-71.087-25.109v-26.826c0-7.177-3.135-14.119-8.508-18.869-7.385-6.536-18.236-8.147-27.202-4.018-8.849 4.072-14.664 13.149-14.664 22.886v29.32c-4.337 0.825-8.647 1.804-12.905 2.976-23.651 6.496-45.589 19.164-61.615 37.906-7.984 9.339-14.493 19.941-18.992 31.383-1.175 2.991-2.223 6.036-3.141 9.117-0.831 2.786-1.69 5.62-1.988 8.526-0.497 4.876 0.47 9.848 2.741 14.191 4.671 8.93 14.511 14.327 24.558 13.429 9.888-0.876 18.555-7.74 21.67-17.167 0.958-2.903 1.608-5.879 2.686-8.749 1.066-2.855 2.355-5.626 3.873-8.267 2.991-5.201 6.74-9.996 11.059-14.155 8.9-8.578 20.236-14.149 32.054-17.465v99.662c-23.109 5.984-46.962 13.71-66.045 28.549-9.276 7.213-17.146 16.176-22.299 26.787-5.439 11.198-7.692 23.669-7.782 36.060-0.093 12.58 2.295 25.049 7.544 36.512 4.915 10.734 11.993 20.369 20.67 28.356 18.552 17.077 43.198 26.6 67.915 30.1v27.847c0 7.177 3.135 14.119 8.508 18.872 7.388 6.533 18.236 8.147 27.202 4.018 8.849-4.075 14.664-13.149 14.664-22.889v-27.693c3.292-0.416 6.578-0.913 9.845-1.506 24.272-4.391 48.014-14.414 65.765-31.916 8.409-8.288 15.294-18.164 20.134-28.937 1.352-3.003 2.536-6.078 3.56-9.213 0.955-2.921 1.912-5.933 2.367-8.984 0.729-4.867-0.015-9.9-2.099-14.354-4.268-9.129-13.845-14.938-23.919-14.508-9.897 0.431-18.866 6.876-22.411 16.128-1.054 2.753-1.581 5.665-2.659 8.409-1.087 2.78-2.494 5.43-4.114 7.933-3.153 4.867-7.237 9.041-11.899 12.481-10.095 7.454-22.341 11.339-34.578 13.508v-95.374c14.544-3.482 29.097-7.279 43.029-12.773 21.055-8.303 41.008-21.034 52.501-41.111-1.783 3.126-3.518 6.177 0.060-0.102 3.515-6.168 1.837-3.229 0.072-0.139 9.147-16.116 12.149-35.385 10.162-53.688zM584.318 236.737c-0.148-0.265-0.277-0.494-0.376-0.672 0.087 0.154 0.217 0.382 0.376 0.672z" />
<glyph unicode="&#xe91a;" glyph-name="5car" d="M882.772 322.563c-24.745-15.36-48.212-27.308-69.12-35.84-14.505-6.4-30.292-9.388-45.652-9.388s-31.148 2.988-45.652 9.388c-37.12 15.36-82.348 40.96-126.295 75.945h-407.466l63.146 145.068c6.827 15.36 22.187 25.6 38.827 25.6h168.108c-11.948 26.452-21.335 55.040-26.455 85.332h-141.652c-50.773 0-96.853-30.292-117.333-76.8l-84.48-194.132c-0.427-0.852 0-1.708-0.427-2.988-52.053-26.452-88.32-79.785-88.32-142.080v-160c0-58.88 47.787-106.665 106.667-106.665s106.666 47.785 106.666 106.665v21.335h511.999v-21.335c0-58.88 47.788-106.665 106.668-106.665s106.668 47.785 106.668 106.665v160c0 48.215-21.76 91.308-55.895 119.895zM256 149.335h-85.333c-23.467 0-42.667 19.2-42.667 42.668 0 23.465 19.2 42.665 42.667 42.665h85.333c23.467 0 42.667-19.2 42.667-42.665 0-23.468-19.2-42.668-42.667-42.668zM768 149.335h-85.332c-23.468 0-42.668 19.2-42.668 42.668 0 23.465 19.2 42.665 42.668 42.665h85.332c23.468 0 42.668-19.2 42.668-42.665 0-23.468-19.2-42.668-42.668-42.668zM1002.282 882.091l-224 76.203c-6.656 2.304-13.908 2.304-20.564 0l-224-76.203c-13.014-4.395-21.718-16.597-21.718-30.293v-171.435c0-209.236 233.556-310.955 243.498-315.178 8.023-3.37 16.98-3.37 25.004 0 9.942 4.222 243.498 105.942 243.498 315.178v171.435c0 13.696-8.704 25.898-21.718 30.293zM908.204 720.299l-117.335-149.332c-14.932-19.074-42.921-21.847-61.268-6.060l-74.668 64c-17.92 15.318-20.010 42.282-4.608 60.16 15.318 17.877 42.282 19.925 60.118 4.608l40.876-35.030 89.814 114.304c14.55 18.517 41.342 21.802 59.904 7.168 18.516-14.464 21.76-41.302 7.168-59.819z" />
<glyph unicode="&#xe91b;" glyph-name="6key" d="M421.999 808h-60c-16.568 0-30-13.428-30-30v-60h-59.999c-16.568 0-30-13.428-30-30v-60.001c0-16.568 13.432-30 30-30h279.752c25.946-86.534 105.27-150.001 200.249-150.001 115.98 0 210.001 94.021 210.001 210.001s-94.021 210.002-210.001 210.002c-94.979 0-174.303-63.464-200.249-150.001h-99.753v60c0 16.57-13.429 30-30 30zM752.002 747.999c49.706 0 90.001-40.294 90.001-90.001s-40.294-90.001-90.001-90.001c-49.706 0-90.001 40.294-90.001 90.001s40.294 90.001 90.001 90.001zM752.002 628.001c16.568 0 29.997 13.429 29.997 30 0 16.567-13.429 29.999-29.997 29.999-16.571 0-30-13.432-30-29.999 0-16.571 13.429-30 30-30zM242 80.065c224.802-51.977 387.82-52.067 448.004-52.067 6.792 0 13.062 2.286 18.375 6.502l304.285 240.002c7.813 6.204 11.64 15.435 11.318 24.588-0.476 13.339-10.788 21.983-11.071 22.227-42.505 36.716-107.183 32.012-150.353-3.921l-91.738-74.698c-26.94-22.42-60.88-34.699-95.928-34.699h-222.892c-16.58 0-30 13.417-30 30s13.42 30 30 30h240.002c0 66.277-53.727 120.001-120.001 120.001-56.043 0-112.733 13.917-163.915 40.225-25.546 13.125-51.152 19.775-76.086 19.775-34.767 0-65.653-13.179-89.999-28.034v-339.902zM30 28h122c16.568 0 30 13.432 30 30v329.999h-152c-16.568 0-30-13.426-30-30v-299.999c0-16.568 13.432-30 30-30z" />
<glyph unicode="&#xe91c;" glyph-name="file" d="M441.619 67.539h-286.619c-9.017 0-17.665 3.584-24.042 9.958-6.376 6.378-9.958 15.024-9.958 24.042s3.582 17.667 9.958 24.042c6.376 6.378 15.024 9.958 24.042 9.958h263.16c-5.491 24.438-8.227 49.414-8.16 74.461-0.054 28.461 3.603 56.806 10.88 84.32h-265.88c-9.017 0-17.665 3.581-24.042 9.958s-9.958 15.024-9.958 24.042c0 9.018 3.582 17.664 9.958 24.042s15.024 9.958 24.042 9.958h291.381c35.642 70.858 94.934 127.024 167.619 158.781h-459c-9.017 0-17.665 3.581-24.042 9.958-6.376 6.374-9.958 15.024-9.958 24.042s3.582 17.664 9.958 24.042c6.376 6.374 15.024 9.958 24.042 9.958h476.002c9.014 0 17.664-3.584 24.042-9.958 6.374-6.378 9.955-15.024 9.955-24.042 0-6.102-1.645-12.093-4.758-17.341 29.206 8.224 59.418 12.342 89.76 12.24 11.558 0 22.781 0 34-1.699v307.699c0 27.052-10.746 52.996-29.875 72.125s-45.072 29.875-72.125 29.875h-578c-27.052 0-52.996-10.746-72.125-29.875s-29.875-45.073-29.875-72.125v-816c0-27.053 10.746-52.995 29.875-72.125s45.073-29.875 72.125-29.875h442c-44.982 33.869-80.851 78.384-104.381 129.539zM155 815.54h476.002c9.014 0 17.664-3.582 24.042-9.958 6.374-6.376 9.955-15.024 9.955-24.042s-3.581-17.665-9.955-24.042c-6.378-6.376-15.027-9.958-24.042-9.958h-476.002c-9.017 0-17.665 3.582-24.042 9.958s-9.958 15.024-9.958 24.042c0 9.018 3.582 17.666 9.958 24.042s15.024 9.958 24.042 9.958zM750 482c-53.795 0-106.384-15.952-151.114-45.84-44.733-29.888-79.594-72.368-100.182-122.070-20.586-49.702-25.971-104.39-15.478-157.155 10.496-52.762 36.4-101.229 74.442-139.267 38.038-38.042 86.506-63.946 139.267-74.442 52.765-10.493 107.453-5.107 157.155 15.478 49.702 20.589 92.182 55.45 122.070 100.182 29.888 44.73 45.84 97.318 45.84 151.114 0 72.138-28.656 141.322-79.667 192.333-51.008 51.011-120.195 79.667-192.333 79.667zM857.44 235.501l-117.638-102c-6.112-5.392-13.955-8.406-22.102-8.502-8.262 0.013-16.24 3.034-22.438 8.502l-52.701 45.558c-3.37 2.947-6.128 6.531-8.115 10.541-1.987 4.013-3.165 8.378-3.462 12.845-0.301 4.467 0.282 8.95 1.715 13.194 1.43 4.243 3.686 8.16 6.634 11.533 2.947 3.37 6.528 6.128 10.541 8.115s8.378 3.162 12.845 3.462c4.467 0.301 8.95-0.282 13.19-1.715 4.243-1.434 8.163-3.686 11.533-6.634l30.259-26.179 94.861 82.278c3.309 3.181 7.229 5.658 11.523 7.28 4.291 1.626 8.87 2.362 13.456 2.17s9.085-1.312 13.226-3.29c4.141-1.978 7.84-4.774 10.874-8.218 3.030-3.446 5.334-7.472 6.768-11.83 1.437-4.358 1.974-8.963 1.581-13.536-0.39-4.573-1.706-9.021-3.862-13.072s-5.11-7.626-8.685-10.502z" />
<glyph unicode="&#xe91d;" glyph-name="policy" d="M505.979 536.32h0.428l209.068 71.252c0.852 3.84 0.852 7.68 0.852 11.095 0 3.84-0.428 7.252-1.708 10.665-3.412 9.815-9.812 20.48-18.772 28.16v93.441c0 69.12-24.748 96.427-50.348 112.214-13.225 40.106-68.265 96.853-176.212 96.853-128 0-224.427-126.72-224.427-209.067 0-34.133-1.28-61.013-2.56-81.493 0-4.267-0.426-8.107-0.426-11.52-9.387-8.532-15.787-20.052-18.774-31.148-0.426-2.56-0.853-5.12-0.853-8.105 0-33.28 18.773-81.495 21.333-87.040 2.56-7.255 8.107-13.228 15.36-16.64 0.427-1.708 0.854-4.268 0.854-9.388 0-45.228 38.826-87.892 60.161-108.372-2.135-46.935-15.36-79.36-34.135-87.468l-167.253-55.468c-47.36-15.785-82.774-54.185-95.147-102.825l-22.613-90.455c-2.133-9.385 0-19.625 5.973-27.305s15.36-12.375 25.173-12.375h478.294c-12.8 16.215-24.748 34.135-35.84 53.335-28.16 49.92-47.788 110.505-47.788 179.2v171.092c0 50.348 32 94.72 79.36 111.36zM1002.282 455.421l-224 76.204c-6.656 2.304-13.908 2.304-20.564 0l-224-76.204c-13.014-4.394-21.718-16.553-21.718-30.292v-171.436c0-209.236 233.556-310.953 243.498-315.178 8.023-3.37 16.98-3.37 25.004 0 9.942 4.268 243.498 105.942 243.498 315.178v171.436c0 13.74-8.704 25.898-21.718 30.292zM908.204 293.629l-117.335-149.332c-14.932-19.070-42.921-21.844-61.31-6.060l-74.668 64c-17.92 15.318-20.010 42.285-4.608 60.16 15.318 17.878 42.282 19.926 60.118 4.608l40.876-35.027 89.811 114.302c14.55 18.516 41.346 21.802 59.907 7.168 18.558-14.462 21.802-41.3 7.21-59.82z" />
<glyph unicode="&#xe91e;" glyph-name="arrow-down" horiz-adv-x="2048" d="M0 960l1024-1024 1024 1024h-2048z" />
<glyph unicode="&#xe91f;" glyph-name="map-pin" horiz-adv-x="768" d="M384 960c-211.744 0-384-172.608-384-384.704 0-317.664 358.432-622.688 373.696-635.52 2.976-2.528 6.656-3.776 10.304-3.776 3.616 0 7.232 1.216 10.176 3.648 15.264 12.608 373.824 312.384 373.824 635.648 0 212.096-172.256 384.704-384 384.704zM384.064-26.816c-58.912 52.64-352.064 328.288-352.064 602.112 0 194.496 157.92 352.704 352 352.704s352-158.208 352-352.704c0-278.464-292.864-550.176-351.936-602.112zM384 768c-105.888 0-192-86.112-192-192s86.112-192 192-192 192 86.112 192 192-86.112 192-192 192zM384 416c-88.224 0-160 71.776-160 160s71.776 160 160 160 160-71.776 160-160-71.776-160-160-160z" />
<glyph unicode="&#xe920;" glyph-name="map1" d="M298.667 779.819v-584.405l-213.333-121.899v584.405zM725.333 73.515v584.405l213.333 121.899v-584.363zM662.827-37.76c3.499-1.835 7.253-3.2 11.221-4.011 1.408-0.299 2.859-0.512 4.309-0.64s2.901-0.213 4.352-0.213c-0.043-0.043-0.043-0.043-0.043-0.043s0 0 0.043 0c7.381 0 14.677 1.963 21.163 5.632l0.64 0.384 298.027 170.283c13.653 7.808 21.376 22.101 21.461 37.035v682.667c0 23.552-19.115 42.667-42.667 42.667-7.808 0-15.104-2.091-21.163-5.632l-278.827-159.317-320.128 160.085c-3.541 1.792-7.296 3.2-11.264 4.011-1.451 0.299-2.859 0.512-4.309 0.64s-2.901 0.213-4.352 0.213c0.043 0 0.043 0 0.043 0s0 0-0.043 0c-7.381 0-14.677-1.963-21.12-5.632l-0.64-0.341-298.027-170.325c-13.696-7.808-21.419-22.101-21.504-37.035v-682.667c0-23.552 19.115-42.667 42.667-42.667 7.808 0 15.104 2.091 21.163 5.632l278.827 159.317zM640 656.299v-587.264l-256 128v587.264z" />
<glyph unicode="&#xe921;" glyph-name="mail" d="M128 600.704l359.552-251.691c14.507-10.027 33.92-10.496 48.939 0l359.509 251.691v-430.037c0-11.605-4.693-22.229-12.587-30.080s-18.475-12.587-30.080-12.587h-682.667c-11.605 0-22.229 4.693-30.080 12.587s-12.587 18.475-12.587 30.080zM42.667 683.392c0-0.427 0-0.853 0-1.28v-511.445c0-35.328 14.507-67.371 37.547-90.453s55.125-37.547 90.453-37.547h682.667c35.328 0 67.371 14.507 90.453 37.547s37.547 55.125 37.547 90.453v511.488c0 0.427 0 0.853 0 1.28-0.213 35.029-14.635 66.773-37.547 89.685-23.083 23.040-55.125 37.547-90.453 37.547h-682.667c-35.328 0-67.371-14.507-90.453-37.547-22.912-22.912-37.333-54.656-37.547-89.728zM891.477 701.696l-379.477-265.6-379.477 265.6c2.048 4.096 4.779 7.808 8.021 11.051 7.893 7.893 18.517 12.587 30.123 12.587h682.667c11.605 0 22.229-4.693 30.080-12.587 3.243-3.243 5.973-6.997 8.021-11.051z" />
<glyph unicode="&#xe922;" glyph-name="arrow_back_ios" d="M498 772.667l-346-346 346-346-76-76-422 422 422 422z" />
<glyph unicode="&#xe923;" glyph-name="arrow_forward_ios" d="M250 762.667l92 90 426-426-426-426-92 90 338 336z" />
<glyph unicode="&#xe924;" glyph-name="mail-envelope-closed" d="M170.080 663.235l247.52-215.235-247.581-215.287c-6.206 5.878-10.019 14.235-10.019 23.507v383.562c0 9.253 3.874 17.582 10.080 23.454zM885.981 663.287c6.206-5.878 10.019-14.235 10.019-23.507v-383.562c0-9.252-3.874-17.582-10.080-23.454l-247.52 215.235 247.581 215.287zM614.459 427.181l233.541-203.181h-640l233.541 203.181 86.459-75.181 86.459 75.181zM192.115 704c-35.41 0-64.115-28.624-64.115-63.81v-384.38c0-35.241 28.472-63.81 64.115-63.81h671.77c35.41 0 64.115 28.624 64.115 63.81v384.38c0 35.241-28.472 63.81-64.115 63.81h-671.77zM528 393.6l-320 278.4h640l-320-278.4z" />
<glyph unicode="&#xe925;" glyph-name="arrow-right-circle" d="M981.333 426.667c0 129.579-52.565 246.997-137.472 331.861s-202.283 137.472-331.861 137.472-246.997-52.565-331.861-137.472-137.472-202.283-137.472-331.861 52.565-246.997 137.472-331.861 202.283-137.472 331.861-137.472 246.997 52.565 331.861 137.472 137.472 202.283 137.472 331.861zM896 426.667c0-106.069-42.923-201.984-112.469-271.531s-165.461-112.469-271.531-112.469-201.984 42.923-271.531 112.469-112.469 165.461-112.469 271.531 42.923 201.984 112.469 271.531 165.461 112.469 271.531 112.469 201.984-42.923 271.531-112.469 112.469-165.461 112.469-271.531zM341.333 384h238.336l-97.835-97.835c-16.683-16.683-16.683-43.691 0-60.331s43.691-16.683 60.331 0l170.667 170.667c3.925 3.925 7.083 8.619 9.259 13.824 4.309 10.453 4.309 22.229 0 32.683-2.091 5.035-5.163 9.728-9.259 13.824l-170.667 170.667c-16.683 16.683-43.691 16.683-60.331 0s-16.683-43.691 0-60.331l97.835-97.835h-238.336c-23.552 0-42.667-19.115-42.667-42.667s19.115-42.667 42.667-42.667z" />
<glyph unicode="&#xe926;" glyph-name="service" horiz-adv-x="904" d="M451.698 643.084c-107.586 0-195.11-87.522-195.11-195.102 0-107.586 87.524-195.108 195.11-195.108 107.577 0 195.102 87.522 195.102 195.108 0 107.58-87.525 195.102-195.102 195.102zM567.534 484.725l-139.773-139.773c-5.867-5.867-13.562-8.806-21.251-8.806-7.686 0-15.375 2.93-21.242 8.806l-53.414 53.414c-11.734 11.725-11.734 30.75 0 42.484 11.725 11.734 30.75 11.734 42.484 0l32.172-32.172 118.54 118.531c11.725 11.734 30.75 11.734 42.484 0 11.734-11.728 11.734-30.75 0-42.484zM886.739 682.163l-0.030 0.797c-0.446 9.836-0.744 20.242-0.925 31.82-0.834 56.461-45.719 103.164-102.186 106.32-117.733 6.57-208.812 44.961-286.633 120.812l-0.663 0.633c-25.383 23.273-63.672 23.273-89.064 0l-0.663-0.633c-77.821-75.851-168.899-114.242-286.632-120.82-56.461-3.148-101.351-49.852-102.187-106.32-0.172-11.5-0.477-21.906-0.922-31.812l-0.047-1.852c-2.289-120.056-5.133-269.469 44.851-405.086 27.484-74.577 69.109-139.406 123.711-192.693 62.188-60.687 143.64-108.866 242.092-143.194 3.205-1.117 6.533-2.024 9.924-2.705 4.78-0.952 9.592-1.431 14.405-1.431s9.632 0.479 14.405 1.431c3.391 0.681 6.743 1.593 9.963 2.72 98.334 34.388 179.703 82.592 241.836 143.273 54.576 53.305 96.202 118.149 123.708 192.741 50.173 136.023 47.336 285.717 45.056 405.999zM451.756 192.789c-140.719 0-255.195 114.477-255.195 255.196s114.476 255.193 255.195 255.193c140.71 0 255.193-114.475 255.193-255.193s-114.483-255.196-255.193-255.196z" />
<glyph unicode="&#xe927;" glyph-name="contract" d="M608 960h-490.667c-64.853 0-117.333-52.48-117.333-117.333v-661.334c0-64.852 52.48-117.332 117.333-117.332h314.879l9.388 52.48c4.268 23.892 15.36 45.228 32.428 62.72l251.305 250.88v412.587c0 64.853-52.48 117.333-117.332 117.333v0zM170.667 789.333h170.666c23.468 0 42.668-19.2 42.668-42.666s-19.2-42.667-42.668-42.667h-170.666c-23.467 0-42.667 19.2-42.667 42.667s19.2 42.666 42.667 42.666zM384 362.668h-213.333c-23.467 0-42.667 19.2-42.667 42.665 0 23.468 19.2 42.668 42.667 42.668h213.333c23.468 0 42.668-19.2 42.668-42.668 0-23.465-19.2-42.665-42.668-42.665zM554.668 533.332h-384.001c-23.467 0-42.667 19.2-42.667 42.668s19.2 42.668 42.667 42.668h384.001c23.465 0 42.665-19.2 42.665-42.668s-19.2-42.668-42.665-42.668zM534.543-63.997c-8.406 0-16.598 3.328-22.615 9.385-7.379 7.382-10.707 17.878-8.873 28.202l22.612 128.214c1.108 6.442 4.268 12.418 8.876 17.068l316.798 316.756c38.912 38.999 77.143 28.458 98.048 7.554l52.778-52.778c29.142-29.1 29.142-76.46 0-105.602l-316.798-316.798c-4.608-4.653-10.58-7.767-17.068-8.876l-128.214-22.612c-1.834-0.343-3.71-0.512-5.545-0.512zM662.757-9.385v0z" />
<glyph unicode="&#xe928;" glyph-name="contracting" d="M749.312 563.7l154.272-56.666-128.298-349.326c-12.005-32.855-77.116-135.662-122.458-156.633l-11.005-30.012c-2.801-7.605-10.005-12.366-17.649-12.366-2.159 0-4.322 0.401-6.481 1.16-9.725 3.602-14.767 14.366-11.168 24.172l10.406 28.371c-23.010 44.704-5.843 174.523 4.244 201.975l128.139 349.326zM972.577 933.313c-42.421 15.527-92.082-16.568-106.291-55.346l-92.922-253.158 154.232-56.588 92.805 253.12c11.686 31.695-5.325 96.405-47.824 111.973zM693.447 576.786c4.322-1.602 8.764-2.361 13.086-2.361 15.288 0 29.654 9.364 35.295 24.57l98.048 264.445c7.243 19.489-2.723 41.14-22.212 48.343-19.649 7.123-41.138-2.721-48.381-22.21l-98.048-264.444c-7.243-19.489 2.723-41.138 22.212-48.342zM535.612 80.914c-10.126 9.562-22.73 21.489-43.141 30.572-16.809 7.484-33.175 7.846-45.14 8.126-1.241 0-2.68 0.039-4.123 0.078-7.481 20.489-22.648 33.376-45.42 38.418-30.133 6.364-54.185-7.843-70.873-18.808 1.482 8.403 3.921 18.408 5.722 25.612 5.762 23.212 11.686 47.221 7.282 69.713-3.482 17.769-18.489 30.973-36.575 32.256-46.623 2.599-84.721-22.492-118.297-45.182-35.257-23.811-57.867-38.018-80.358-29.973-27.453 9.764-30.214 84.079-17.008 150.269 11.806 59.63 33.776 170.641 90.082 221.064 18.969 16.968 46.422 35.337 68.992 26.413 26.532-10.406 48.463-54.106 53.345-106.171 2.041-21.971 21.211-38.096 43.579-36.096 22.010 2.042 38.18 21.57 36.099 43.58-7.924 84.838-47.703 151.191-103.77 173.241-33.576 13.046-86.961 16.568-151.671-41.338-70.393-63.030-96.405-169.921-115.254-265.126-9.444-47.544-32.455-205.297 68.712-241.272 61.629-21.971 111.692 11.924 151.911 39.057 7.363 4.963 14.607 9.845 21.65 14.206-6.683-29.012-10.845-60.067 6.683-86.239 26.132-39.298 63.069-43.58 109.73-12.845 1.801 1.16 3.882 2.521 5.843 3.882 4.322-9.044 11.966-19.010 25.853-25.814 16.809-8.243 33.617-8.644 45.863-8.963 5.24-0.12 12.405-0.28 14.565-1.241 7.523-3.322 11.966-7.403 20.61-15.568 6.484-6.123 13.327-12.487 22.010-19.049 7.204-5.403 15.607-7.963 23.931-7.963 12.168 0 24.212 5.563 32.057 16.008 13.246 17.688 9.644 42.779-8.044 56.025-5.804 4.485-10.406 8.924-14.848 13.128z" />
<glyph unicode="&#xe929;" glyph-name="learn" d="M156.632 839.162c-0.027 0-0.058 0-0.086 0-9.685 0-18.794-3.775-25.673-10.636-6.954-6.937-10.785-16.174-10.785-26.007v-549.464c0-20.149 16.457-36.581 36.688-36.632 85.292-0.202 228.19-17.98 326.771-121.142v575.028c0 6.83-1.744 13.247-5.039 18.556-80.908 130.3-236.392 150.097-321.878 150.297zM903.897 253.051v549.467c0 9.833-3.831 19.070-10.785 26.007-6.879 6.861-15.995 10.636-25.669 10.636-0.030 0-0.060 0-0.090 0-85.48-0.203-240.962-20.001-321.876-150.301-3.295-5.31-5.036-11.726-5.036-18.556v-575.024c98.581 103.162 241.48 120.94 326.77 121.142 20.23 0.051 36.686 16.483 36.686 36.629zM987.359 712.441h-26.57v-459.393c0-51.444-41.915-93.392-93.437-93.521-72.346-0.172-191.636-14.318-276.116-94.277 146.11 35.774 300.137 12.52 387.921-7.484 10.96-2.497 22.287 0.081 31.066 7.081 8.752 6.981 13.773 17.42 13.773 28.621v582.338c0.003 20.201-16.438 36.636-36.638 36.636zM63.205 253.048v459.393h-26.569c-20.197 0-36.637-16.436-36.637-36.636v-582.326c0-11.207 5.020-21.64 13.771-28.621 8.775-6.996 20.090-9.586 31.068-7.084 87.782 20.007 241.813 43.261 387.919 7.487-84.48 79.953-203.767 94.097-276.113 94.268-51.521 0.126-93.439 42.074-93.439 93.518z" />
<glyph unicode="&#xe92a;" glyph-name="quality" d="M981.025 658.321l-104.541 62.549-23.555 97.5c-10.457 43.242-50.507 72.070-94.425 68.614l-119.618-9.258-68.524 60.672c-33.753 28.798-82.854 28.798-116.718 0.030l-68.527-60.7-119.621 9.258c-43.418 3.046-83.994-25.4-93.34-65.068-1.934-6.012-36.868-114.602-34.6-107.548l-94.564-56.016c-37.88-23.263-53.056-69.96-36.094-111.035l40.81-98.906-40.78-98.879c-16.992-41.105-1.788-87.775 36.064-111.005l104.436-62.112 23.642-97.94c10.4-43.213 50.274-71.894 94.424-68.614l118.331 9.141 69.813-61.386c16.905-14.411 37.62-21.618 58.362-21.618 20.712 0 41.457 7.207 58.362 21.621l69.813 61.386 118.329-9.141c44.71-3.545 84.025 25.371 94.425 68.614l23.555 97.5 104.541 62.548c37.822 23.23 52.998 69.9 36.063 111.005l-40.809 98.876 40.84 98.936c16.935 41.044 1.759 87.745-36.093 110.974zM512 118.001c-181.962 0-329.999 148.037-329.999 329.999s148.038 330 329.999 330c181.962 0 330.002-148.038 330.002-330s-148.040-329.999-330.002-329.999zM512 718c-148.887 0-270-121.113-270-270s121.113-269.999 270-269.999c148.887 0 269.999 121.112 269.999 269.999s-121.112 270-269.999 270zM683.21 516.789l-180.001-179.998c-5.858-5.861-13.535-8.791-21.209-8.791s-15.351 2.93-21.209 8.791l-120.001 120.001c-11.719 11.716-11.719 30.702 0 42.421s30.705 11.719 42.421 0l98.789-98.789 158.789 158.789c11.719 11.719 30.705 11.719 42.424 0 11.716-11.719 11.716-30.705-0.003-42.424z" />
<glyph unicode="&#xe92b;" d="M887.467 558.933c0-98.969-80.231-179.2-179.2-179.2s-179.2 80.231-179.2 179.2c0 98.969 80.231 179.2 179.2 179.2s179.2-80.231 179.2-179.2z" />
<glyph unicode="&#xe92c;" d="M988.561 765.984h-36.48c-8.081-0.009-15.829-3.225-21.547-8.94-5.709-5.715-8.926-13.463-8.934-21.545l0.017-572.242c-0.009-1.080 0.137-2.156 0.418-3.2l36.719-132.768c0.7-2.526 2.21-4.762 4.301-6.349s4.642-2.449 7.27-2.449c2.62 0 5.171 0.862 7.262 2.449s3.601 3.823 4.301 6.349l36.719 132.768c0.282 1.043 0.427 2.12 0.418 3.2l0.017 572.242c-0.009 8.082-3.226 15.83-8.934 21.545-5.717 5.715-13.466 8.93-21.547 8.94z" />
<glyph unicode="&#xe92d;" d="M693.493 953.028c-2.25 2.25-5.303 3.514-8.484 3.514h-591.782c-12.292-0.014-24.076-4.903-32.767-13.594s-13.58-20.476-13.593-32.768v-924.362c0.013-12.288 4.902-24.073 13.593-32.768 8.691-8.687 20.475-13.577 32.767-13.594h713.104c12.291 0.017 24.076 4.907 32.768 13.594 8.692 8.695 13.582 20.48 13.596 32.768v803.040c-0.001 3.182-1.265 6.234-3.517 8.484l-155.686 155.686zM696.893 915.678l114.822-114.82h-114.813l-0.009 114.82zM806.322-36.54h-713.096c-5.928 0.009-11.612 2.364-15.804 6.554s-6.55 9.882-6.556 15.804v924.362c0.006 5.928 2.364 11.612 6.556 15.805s9.876 6.551 15.804 6.557h579.674v-143.684c0-3.183 1.264-6.235 3.514-8.486s5.303-3.515 8.486-3.515h143.8v-791.040c-0.008-5.931-2.366-11.614-6.56-15.804-4.194-4.198-9.888-6.554-15.818-6.554zM946.671 800.116h-36.48c-8.081-0.010-15.829-3.225-21.547-8.94-5.709-5.715-8.926-13.463-8.934-21.545l0.017-572.242c-0.009-1.080 0.128-2.157 0.41-3.2l36.727-132.767c0.7-2.526 2.21-4.762 4.301-6.349s4.642-2.449 7.262-2.449c2.628 0 5.18 0.862 7.27 2.449s3.601 3.823 4.301 6.349l36.719 132.767c0.282 1.043 0.427 2.12 0.418 3.2l0.017 572.242c-0.009 8.082-3.226 15.83-8.943 21.545-5.709 5.715-13.457 8.929-21.538 8.94zM903.706 769.632c0.009 1.719 0.691 3.367 1.903 4.582s2.867 1.9 4.582 1.902h36.48c1.715-0.003 3.362-0.686 4.582-1.902 1.212-1.215 1.894-2.864 1.894-4.582v-42.96h-49.442v42.96zM953.148 209.388h-49.442v493.284h49.442v-493.284zM928.427 109.64l-20.949 75.748h41.907l-20.958-75.748zM287.229 594.2v-202.801c0-3.182 1.265-6.234 3.515-8.485s5.303-3.515 8.486-3.515h301.1c3.183 0 6.235 1.265 8.486 3.515s3.515 5.303 3.515 8.485v202c4.538-0.535 9.138-0.083 13.486 1.326 5.637 1.803 10.703 5.053 14.691 9.427s6.759 9.716 8.037 15.496c2.648 12.086-1.652 24.326-11.8 33.575-0.062 0.058-0.124 0.114-0.188 0.168l-154.201 134.8c-9.283 8.178-21.24 12.672-33.612 12.633s-24.3-4.611-33.53-12.849l-150.588-134.546c-18.164-14.85-17.466-35.26-7.338-47.8 3.529-4.39 8.161-7.762 13.423-9.771s10.963-2.581 16.519-1.659zM486.209 403.4h-72.854v158.684c0 0.563 0.224 1.103 0.621 1.501s0.938 0.622 1.501 0.623h68.599c0.563-0.001 1.103-0.224 1.502-0.623s0.622-0.938 0.622-1.501l0.009-158.684zM510.209 403.4v158.684c-0.010 6.926-2.767 13.564-7.665 18.46s-11.538 7.648-18.464 7.655h-68.6c-6.926-0.008-13.565-2.762-18.463-7.66s-7.652-11.537-7.659-18.464v-158.676h-78.13v204.4l137.682 125.059 139.418-126.778v-202.68h-78.12zM279.953 634.958c0.155 0.126 0.307 0.256 0.457 0.39l150.8 134.734c4.857 4.331 11.133 6.729 17.641 6.744s12.794-2.357 17.671-6.665l154.134-134.744c2.6-2.386 5.422-6.147 4.44-10.63-0.393-1.656-1.2-3.185-2.347-4.442s-2.594-2.202-4.207-2.746c-4.426-1.399-8.464 1.138-11.092 3.53l-150.466 136.822c-2.208 2.007-5.086 3.119-8.070 3.119s-5.862-1.112-8.070-3.119l-150.351-136.566c-6.799-5.348-11.952-3.882-14.53-0.688-2.606 3.238-2.928 8.68 3.988 14.262z" />
<glyph unicode="&#xe92e;" d="M689.082 286.589c2.25 2.251 3.515 5.303 3.515 8.486s-1.265 6.234-3.515 8.486c-2.25 2.25-5.303 3.515-8.486 3.515h-461.629c-3.183 0-6.235-1.265-8.486-3.515s-3.515-5.303-3.515-8.486c0-3.183 1.265-6.234 3.515-8.486s5.303-3.514 8.486-3.514h461.629c3.183 0 6.235 1.264 8.486 3.514z" />
<glyph unicode="&#xe92f;" d="M689.082 213.516c2.25 2.25 3.515 5.303 3.515 8.485 0 1.576-0.31 3.135-0.913 4.591s-1.487 2.779-2.601 3.894c-1.114 1.114-2.437 1.999-3.894 2.602s-3.017 0.914-4.593 0.914h-461.629c-3.183 0-6.235-1.265-8.486-3.515s-3.515-5.303-3.515-8.486c0-3.182 1.265-6.234 3.515-8.485s5.303-3.515 8.486-3.515h461.629c3.183 0 6.235 1.265 8.486 3.515z" />
<glyph unicode="&#xe930;" d="M689.082 140.442c2.25 2.25 3.515 5.303 3.515 8.486s-1.265 6.234-3.515 8.486c-2.25 2.25-5.303 3.514-8.486 3.514h-461.629c-3.183 0-6.235-1.264-8.486-3.514s-3.515-5.303-3.515-8.486c0-3.183 1.265-6.235 3.515-8.486s5.303-3.515 8.486-3.515h461.629c3.183 0 6.235 1.265 8.486 3.515z" />
<glyph unicode="&#xe931;" d="M689.082 67.371c2.25 2.253 3.515 5.299 3.515 8.482s-1.265 6.238-3.515 8.491c-2.25 2.244-5.303 3.516-8.486 3.516h-461.629c-3.183 0-6.235-1.271-8.486-3.516-2.25-2.253-3.515-5.308-3.515-8.491s1.265-6.229 3.515-8.482c2.25-2.253 5.303-3.516 8.486-3.516h461.629c3.183 0 6.235 1.263 8.486 3.516z" />
<glyph unicode="&#xe932;" d="M772.419 846.95c-14.853 14.88-32.495 26.684-51.916 34.737s-40.239 12.198-61.263 12.197c-21.024-0.001-41.841-4.149-61.262-12.205s-37.059-19.863-51.911-34.745c-14.85 14.882-32.49 26.689-51.908 34.745s-40.236 12.202-61.26 12.202c-21.024 0-41.841-4.147-61.26-12.202s-37.058-19.863-51.908-34.745c-29.946-30.011-46.764-70.676-46.764-113.072s16.818-83.061 46.764-113.072l215.040-215.040c3.001-2.999 7.070-4.685 11.313-4.685s8.311 1.685 11.312 4.685l215.040 215.040c29.945 30.016 46.761 70.684 46.758 113.083s-16.825 83.065-46.775 113.077z" />
<glyph unicode="&#xe933;" d="M608 752h-48v48c0 4.244-1.685 8.313-4.687 11.313s-7.070 4.687-11.313 4.687h-64c-4.244 0-8.313-1.685-11.313-4.687s-4.687-7.070-4.687-11.313v-48h-48c-4.244 0-8.313-1.685-11.313-4.687s-4.687-7.070-4.687-11.313v-64c0-4.244 1.685-8.313 4.687-11.313s7.070-4.687 11.313-4.687h48v-48c0-4.244 1.685-8.313 4.687-11.313s7.070-4.687 11.313-4.687h64c4.244 0 8.313 1.685 11.313 4.687s4.687 7.070 4.687 11.313v48h48c4.244 0 8.313 1.685 11.313 4.687s4.687 7.070 4.687 11.313v64c0 4.244-1.685 8.313-4.687 11.313s-7.070 4.687-11.313 4.687zM592 688h-48c-4.244 0-8.313-1.685-11.313-4.687s-4.687-7.070-4.687-11.313v-48h-32v48c0 4.244-1.685 8.313-4.687 11.313s-7.070 4.687-11.313 4.687h-48v32h48c4.244 0 8.313 1.685 11.313 4.687s4.687 7.070 4.687 11.313v48h32v-48c0-4.244 1.685-8.313 4.687-11.313s7.070-4.687 11.313-4.687h48v-32z" />
<glyph unicode="&#xe934;" d="M955.682 666.24c0.324 2.815 0.478 5.647 0.478 8.48-0.077 14.665-5.163 28.865-14.421 40.243-9.25 11.378-22.118 19.252-36.454 22.316-16.23 3.088-33.015-0.102-46.976-8.923-13.965-8.823-24.053-22.618-28.228-38.596l-70.4-202.56c-1.044-0.415-2.058-0.895-3.040-1.44l-141.44-82.88c-21.644-12.713-39.596-30.853-52.082-52.628s-19.076-46.431-19.118-71.532v-150.72c-4.244 0-8.313-1.685-11.313-4.687s-4.687-7.070-4.687-11.313v-128c0-4.241 1.685-8.311 4.687-11.315 3-2.995 7.070-4.685 11.313-4.685h224c4.244 0 8.313 1.69 11.313 4.685 3.001 3.004 4.687 7.074 4.687 11.315v128c0 4.244-1.685 8.313-4.687 11.313s-7.070 4.687-11.313 4.687v35.2c0.030 6.758 1.469 13.435 4.223 19.606s6.766 11.7 11.777 16.234l108.16 96.16c11.827 10.352 20.301 24.002 24.32 39.2l69.436 259.68c1.485 5.422 2.236 11.018 2.244 16.64-0.060 11.29-3.098 22.367-8.798 32.113s-13.867 17.819-23.68 23.407zM860.638 680.32c1.963 8.275 6.98 15.505 14.037 20.25s15.642 6.655 24.047 5.35c7.168-1.502 13.611-5.42 18.236-11.098 4.634-5.679 7.177-12.774 7.202-20.101v-0.32c-14.293-0.265-28.109-5.192-39.339-14.030-11.238-8.838-19.277-21.103-22.903-34.93l-44.638-137.76c-6.758 3.206-14.005 5.261-21.44 6.080l64.798 186.56zM752 0h-192v96h192v-96zM955.042 602.4l-69.598-259.84c-2.415-9.030-7.415-17.153-14.404-23.36l-108.32-96.16c-8.381-7.559-15.089-16.788-19.691-27.093s-6.996-21.46-7.029-32.747v-35.2h-160v150.72c0.079 19.521 5.222 38.688 14.926 55.626s23.635 31.071 40.434 41.014l141.28 82.72c3.642 2.122 7.669 3.504 11.847 4.065s8.427 0.292 12.5-0.794c4.074-1.085 7.893-2.965 11.238-5.531s6.15-5.768 8.253-9.421c4.157-7.393 5.303-16.103 3.2-24.32-1.111-4.057-3.011-7.855-5.592-11.177s-5.792-6.103-9.447-8.183l-91.68-52.96c-3.482-2.214-5.975-5.687-6.957-9.696s-0.376-8.241 1.689-11.814c2.065-3.573 5.431-6.209 9.394-7.359s8.218-0.724 11.874 1.19l91.68 52.96c7.328 4.157 13.75 9.74 18.889 16.416s8.889 14.315 11.031 22.464c4.352 16.37 2.055 33.8-6.4 48.48l-0.96 1.44 49.438 152.48c1.963 8.275 6.98 15.505 14.037 20.25s15.642 6.655 24.047 5.35c7.168-1.502 13.611-5.42 18.236-11.098 4.634-5.679 7.177-12.774 7.202-20.101 0.051-2.814-0.324-5.621-1.118-8.32z" />
<glyph unicode="&#xe935;" d="M479.993 127.999v150.72c-0.041 25.101-6.631 49.756-19.118 71.532s-30.438 39.915-52.081 52.628l-141.44 83.040c-0.96 0.48-2.080 0.8-3.040 1.28l-69.92 201.44c-4.064 16.211-14.153 30.264-28.212 39.301s-31.033 12.375-47.468 9.339c-14.342-3.064-27.207-10.939-36.461-22.317s-14.341-25.577-14.419-40.243c-0.004-2.833 0.156-5.665 0.48-8.48-9.812-5.588-17.979-13.661-23.681-23.407s-8.736-20.822-8.799-32.113c0.031-5.61 0.729-11.196 2.080-16.64l69.6-259.52c3.977-15.261 12.451-28.975 24.32-39.36l108-96.16c5.061-4.503 9.116-10.022 11.901-16.197s4.236-12.869 4.259-19.643v-35.2c-4.244 0-8.313-1.686-11.313-4.687s-4.687-7.071-4.687-11.313v-127.999c0-4.241 1.686-8.311 4.687-11.315s7.070-4.685 11.313-4.685h224c4.244 0 8.313 1.681 11.313 4.685s4.687 7.074 4.687 11.315v127.999c0 4.243-1.685 8.313-4.687 11.313s-7.070 4.687-11.313 4.687zM99.833 674.719c0.020 7.305 2.539 14.383 7.137 20.059s11.001 9.607 18.143 11.141c8.635 1.253 17.424-0.805 24.605-5.76s12.223-12.442 14.115-20.96l64.32-185.44c-7.435-0.819-14.682-2.875-21.44-6.080l-44.32 136.96c-3.607 13.964-11.663 26.373-22.951 35.351s-25.191 14.036-39.609 14.409v0.32zM261.113 223.039l-108.16 96.16c-7.023 6.241-12.035 14.427-14.4 23.52l-69.76 259.68c-0.662 2.723-0.985 5.518-0.96 8.32 0.020 7.305 2.538 14.383 7.137 20.059s11.001 9.607 18.143 11.141c8.574 1.287 17.317-0.721 24.471-5.619s12.187-12.322 14.089-20.781l49.12-151.68-0.96-1.44c-8.454-14.68-10.755-32.109-6.4-48.48 2.143-8.148 5.893-15.786 11.031-22.463s11.561-12.259 18.889-16.416l91.68-52.96c3.657-1.913 7.911-2.339 11.874-1.189s7.329 3.786 9.394 7.359c2.066 3.573 2.67 7.805 1.689 11.814s-3.475 7.482-6.957 9.696l-91.68 52.96c-3.657 2.080-6.867 4.861-9.448 8.183s-4.481 7.12-5.592 11.178c-2.103 8.216-0.956 16.927 3.2 24.32 2.091 3.645 4.879 6.844 8.205 9.411s7.126 4.455 11.183 5.555c4.056 1.099 8.288 1.389 12.457 0.852s8.189-1.888 11.835-3.979l141.44-82.88c16.8-9.944 30.731-24.075 40.435-41.014s14.845-36.105 14.925-55.626v-150.72h-160v35.2c-0.027 11.302-2.435 22.473-7.066 32.783s-11.382 19.529-19.814 27.057zM463.993 0h-192v96h192v-96z" />
<glyph unicode="&#xe936;" d="M738.353 877.887c-14.853 14.879-32.495 26.684-51.916 34.737s-40.239 12.198-61.263 12.197c-21.024-0.001-41.841-4.149-61.262-12.205s-37.059-19.863-51.911-34.744c-14.85 14.882-32.489 26.689-51.908 34.745s-40.236 12.202-61.26 12.202c-21.024 0-41.841-4.147-61.26-12.202s-37.058-19.863-51.908-34.745c-29.946-30.011-46.764-70.676-46.764-113.072s16.818-83.061 46.764-113.072l215.040-215.040c3.001-2.999 7.070-4.685 11.313-4.685s8.311 1.685 11.312 4.685l215.040 215.040c29.945 30.015 46.761 70.684 46.758 113.083s-16.825 83.065-46.775 113.077zM512.001 470.623l-203.728 203.728c-17.886 17.911-30.060 40.722-34.983 65.55s-2.376 50.559 7.322 73.94c9.698 23.38 26.109 43.36 47.161 57.415s45.797 21.551 71.108 21.544c16.814 0.058 33.472-3.233 49.001-9.68s29.618-15.922 41.447-27.871l11.36-11.36c3-2.999 7.069-4.685 11.312-4.685s8.311 1.685 11.312 4.685l11.392 11.392c11.878 11.9 25.987 21.341 41.518 27.782s32.18 9.757 48.994 9.757c16.814 0 33.463-3.316 48.994-9.757s29.64-15.883 41.518-27.782c23.967-23.999 37.429-56.53 37.429-90.448s-13.462-66.448-37.429-90.447l-203.728-203.761z" />
<glyph unicode="&#xe937;" d="M597.333 64h119.467c4.713 0 8.533-3.821 8.533-8.533v-17.067c0-4.713-3.821-8.533-8.533-8.533h-119.467c-4.713 0-8.533 3.821-8.533 8.533v17.067c0 4.713 3.821 8.533 8.533 8.533z" />
<glyph unicode="&#xe938;" d="M307.2 64h119.467c4.713 0 8.533-3.821 8.533-8.533v-17.067c0-4.713-3.821-8.533-8.533-8.533h-119.467c-4.713 0-8.533 3.821-8.533 8.533v17.067c0 4.713 3.821 8.533 8.533 8.533z" />
<glyph unicode="&#xe939;" d="M837 333.001l-154.999 39-40-39 120-66-160-171.999c-24 2.662-75 0.802-87-27.998 64.999 0 68-19.004 53-69.001l48 11.998 8-70.997 33 10.999 9 86.997 192.999 128 47.002-128 39.996 30.003-8.994 169.997c35.994 45 97.801 138.2 56.994 151-40.798 12.8-121.66-31.334-156.997-55z" />
<glyph unicode="&#xe93a;" d="M995.396 420.895c-19.575 21.082-48.188 24.094-88.849 7.529 0 1.506 0 335.812 0 337.318 0 13.553-12.049 25.6-25.6 25.6h-237.927v52.705c0 55.718-45.177 100.894-100.895 100.894h-162.635c-55.718 0-100.894-45.176-100.894-100.894v-51.2h-237.93c-13.553 0-25.6-12.047-25.6-25.6v-665.598c0-13.551 12.047-25.6 25.6-25.6h489.412l19.576-6.025c-10.541-22.588-19.576-37.649-9.035-49.698 4.518-4.514 9.035-6.016 15.059-6.016 9.035 0 21.082 4.514 34.635 9.028l9.035-58.726c0-4.514 3.012-9.037 7.53-10.539 4.518-1.51 9.035-1.51 13.553 0l30.118 15.053c4.518 1.51 7.53 6.025 7.53 12.049l10.541 78.31c9.035 4.514 18.070 10.539 28.611 18.065h174.679l6.025-16.563c1.51-4.514 6.025-7.526 10.547-9.037 4.514-1.502 9.028 0 13.551 3.012l40.661 31.625c4.514 3.012 6.016 7.526 6.016 13.551l-15.053 164.144c70.775 69.271 91.853 123.482 61.739 156.612zM308.714 844.047c0 39.153 31.624 70.777 70.776 70.777h162.635c39.153 0 70.776-31.624 70.776-70.777v-51.2h-304.188v51.2zM876.433 761.224v-150.588h-831.249v150.588h831.249zM45.184 582.024h831.249v-168.659c-15.061-9.035-31.625-19.576-48.19-31.623l-161.129 36.14c-4.518 1.506-10.541 0-13.553-4.518l-36.141-37.647c-3.012-3.012-4.518-7.53-4.518-13.553s3.012-9.035 7.53-10.541l106.918-55.718c-60.235-61.741-108.424-117.459-135.529-153.6h-79.812c-4.518 0-9.035-3.011-12.047-6.024l-18.071-27.105v-4.516h-436.706v477.362zM745.42 104.661c28.611 19.575 60.235 42.162 93.364 67.762l24.098-67.762h-117.462zM900.523 88.098l-40.653 112.938c-1.51 3.011-4.523 6.024-7.532 7.529-4.518 3.012-12.047 1.506-16.565-1.505-76.8-60.236-147.576-105.411-188.235-129.509-3.012-1.502-7.53-7.526-7.53-10.539l-10.541-78.302-4.518-1.51-7.529 57.225c0 3.012-3.012 6.025-4.518 9.037-4.518 4.514-10.54 4.514-15.059 3.012-4.518-1.51-10.541-3.012-16.564-6.025-3.012-1.51-6.024-1.51-10.541-3.012 1.505 3.012 3.011 6.025 4.518 9.037 3.011 6.025 6.024 10.539 7.529 16.563 1.506 3.012 1.506 9.037 0 12.049-1.505 4.514-6.024 7.526-9.035 7.526l-54.211 15.059 3.011 4.518h78.306c4.518 0 9.035 3.012 12.047 6.024 28.612 37.647 82.824 100.894 152.095 170.165 3.011 3.011 4.518 7.529 4.518 13.553-1.506 4.518-3.012 9.035-7.53 10.541l-106.918 55.718 16.565 16.565 156.611-34.635c3.012-1.506 7.53 0 12.047 3.011 67.767 49.694 115.955 67.765 132.518 48.189 18.074-19.576-6.025-66.259-64.751-126.495-3.012-3.011-4.523-7.529-4.523-12.047l15.061-161.128-18.074-13.551z" />
<glyph unicode="&#xe93b;" d="M525.554 371.2c9.035 0 15.059 6.024 15.059 15.059v131.011c0 9.035-6.024 15.059-15.059 15.059h-131.012c-9.035 0-15.059-6.024-15.059-15.059v-131.011c0-9.035 6.024-15.059 15.059-15.059h131.012zM411.107 502.211h100.894v-100.894h-100.894v100.894z" />
<glyph unicode="&#xe93c;" d="M582.883 705.461c-9.329 9.32-21.728 14.461-34.915 14.461s-25.585-5.14-34.905-14.461c-9.329-9.329-14.469-21.726-14.469-34.913s5.14-25.586 14.461-34.906l84.11-84.11c9.32-9.32 21.726-14.461 34.913-14.461s25.578 5.14 34.906 14.461l179.703 179.703c9.329 9.327 14.461 21.726 14.461 34.906 0 13.187-5.132 25.585-14.461 34.913-9.32 9.328-21.726 14.461-34.915 14.461-13.187 0-25.585-5.133-34.905-14.461l-19.813-19.813c-14.681 11.203-30.79 20.188-47.86 26.688v22.461c0 27.227-22.147 49.375-49.367 49.375h-154.812v17.141c0 34.789-28.305 63.094-63.094 63.094h-172.65c-34.789 0-63.094-28.305-63.094-63.094v-71.289c0-19.328 15.727-35.055 35.055-35.055h228.727c19.328 0 35.055 15.727 35.055 35.055v24.102h154.803c10.656 0 19.33-8.672 19.33-19.328v-13.836c-12.368 2.5-25.025 3.828-37.828 3.828-105.228 0-190.836-85.61-190.836-190.836s85.608-190.836 190.836-190.836c12.836 0 25.491 1.289 37.828 3.767v-457.11c0-10.656-8.673-19.319-19.33-19.319h-608.452c-10.656 0-19.32 8.663-19.32 19.319v845.024c0 10.656 8.664 19.328 19.32 19.328h99.867c8.297 0 15.023 6.726 15.023 15.023s-6.727 15.023-15.023 15.023h-99.867c-27.219 0-49.367-22.148-49.367-49.375v-845.024c0-27.218 22.148-49.367 49.367-49.367h608.461c27.22 0 49.367 22.149 49.367 49.367v465.797c23.922 9.102 45.984 22.992 64.86 41.265 35.686 34.555 56.289 80.882 57.991 130.452 0.282 8.289-6.202 15.242-14.5 15.532-8.233 0.273-15.242-6.204-15.531-14.5-2.398-69.774-48.282-127.384-111.288-147.485-0.869-0.203-1.712-0.469-2.509-0.821-14.828-4.46-30.57-6.851-46.897-6.851-88.656 0-160.79 72.132-160.79 160.788s72.134 160.789 160.79 160.789c34.055 0 66.968-10.767 94.273-30.555l-103.516-103.523-49.195 49.203zM474.969 825.617c0-2.766-2.243-5.008-5.007-5.008h-228.727c-2.765 0-5.007 2.242-5.007 5.008v71.289c0 18.227 14.821 33.047 33.046 33.047h172.65c18.219 0 33.046-14.82 33.046-33.047v-71.289zM798.118 779.805c3.649 3.656 8.499 5.664 13.655 5.664 5.164 0 10.016-2.016 13.672-5.664 7.532-7.532 7.532-19.797 0-27.329l-179.71-179.703c-3.649-3.647-8.499-5.663-13.664-5.663s-10.016 2.016-13.665 5.663l-84.108 84.11c-3.649 3.649-5.658 8.501-5.658 13.665s2.009 10.015 5.664 13.664c3.649 3.649 8.501 5.664 13.664 5.664 5.158 0 10.016-2.016 13.665-5.664l59.82-59.82c5.866-5.868 15.374-5.868 21.241 0l155.423 155.414z" />
<glyph unicode="&#xe93d;" d="M410.87 582.909h-183.054c-8.298 0-15.015-6.726-15.015-15.024 0-8.289 6.717-15.015 15.015-15.015h183.054c8.298 0 15.024 6.726 15.024 15.015 0 8.298-6.726 15.024-15.024 15.024z" />
<glyph unicode="&#xe93e;" d="M199.142 737.975h-101.086c-8.297 0-15.023-6.726-15.023-15.024 0-8.296 6.727-15.022 15.023-15.022h101.086c8.298 0 15.024 6.726 15.024 15.022 0 8.298-6.726 15.024-15.024 15.024z" />
<glyph unicode="&#xe93f;" d="M227.816 483.169h183.054c8.298 0 15.024 6.726 15.024 15.024 0 8.289-6.726 15.015-15.024 15.015h-183.054c-8.298 0-15.015-6.726-15.015-15.015 0-8.298 6.717-15.024 15.015-15.024z" />
<glyph unicode="&#xe940;" d="M474.105 400.7h-246.289c-8.298 0-15.015-6.726-15.015-15.024 0-8.296 6.717-15.022 15.015-15.022h246.289c8.296 0 15.024 6.726 15.024 15.022 0 8.298-6.728 15.024-15.024 15.024z" />
<glyph unicode="&#xe941;" d="M227.816 300.962h123.148c8.296 0 15.015 6.726 15.015 15.022 0 8.298-6.719 15.024-15.015 15.024h-123.148c-8.298 0-15.015-6.726-15.015-15.024 0-8.296 6.717-15.022 15.015-15.022z" />
<glyph unicode="&#xe942;" glyph-name="phone1" d="M704 320c-64-64-64-128-128-128s-128 64-192 128-128 128-128 192 64 64 128 128-128 256-192 256-192-192-192-192c0-128 131.5-387.5 256-512s384-256 512-256c0 0 192 128 192 192s-192 256-256 192z" />
<glyph unicode="&#xe943;" glyph-name="headphone" d="M272 540.001c-49.628 0-90-40.374-90-90.002v-243.999c0-49.628 40.372-90.002 90-90.002s89.999 40.374 89.999 90.002v243.999c0 49.628-40.371 90.002-89.999 90.002zM122 449.994c0 8.655 1.142 17.014 2.556 25.267-36.156-11.684-62.556-45.268-62.556-85.266v-124.001c0-39.997 26.4-73.582 62.556-85.268-1.414 8.256-2.556 16.614-2.556 25.27v243.999zM752 540.001c-49.628 0-89.999-40.374-89.999-90.002v-243.999c0-49.628 40.371-90.002 89.999-90.002 9.019 0 17.564 1.738 25.784 4.216-11.169-37.018-45.174-64.215-85.786-64.215h-95.524c-12.426 34.844-45.414 59.999-84.475 59.999-49.628 0-89.999-40.371-89.999-89.999s40.371-89.999 89.999-89.999c39.060 0 72.049 25.157 84.475 60.001h95.524c82.708 0 150.001 67.292 150.001 149.998v304c0 49.628-40.371 90.002-89.999 90.002zM899.451 475.261c1.413-8.253 2.555-16.612 2.555-25.267v-243.999c0-8.655-1.142-17.014-2.555-25.27 36.155 11.686 62.556 45.271 62.556 85.268v124.001c0 39.997-26.401 73.582-62.556 85.266zM512 960c-248.143 0-450-201.856-450-449.999v-0.765c17.874 13.53 38.554 23.432 61.374 27.866 14.022 202.397 182.733 362.899 388.626 362.899s374.605-160.502 388.626-362.897c22.817-4.434 43.497-14.339 61.373-27.868v0.765c0 248.143-201.856 449.999-449.999 449.999z" />
<glyph unicode="&#xe944;" glyph-name="security" horiz-adv-x="788" d="M733.653 677.711l-164.053 124.495c-12.792 9.724-28.412 15-44.481 15.025h-262.546c-16.042-0.025-31.638-5.283-44.421-14.976l-164.111-124.544c-9.134-6.995-16.539-15.996-21.641-26.307s-7.766-21.658-7.785-33.163v-121.108c-0.143-62.815 15.897-124.609 46.573-179.424s74.956-100.805 128.57-133.534l156.012-94.736c11.479-6.991 24.66-10.685 38.098-10.685 13.442 0 26.624 3.694 38.101 10.685l155.963 94.708c53.614 32.733 97.894 78.722 128.571 133.537 30.677 54.819 46.718 116.614 46.572 179.428v121.127c-0.020 11.505-2.682 22.851-7.782 33.163-5.104 10.312-12.509 19.313-21.642 26.307zM713.846 497.113c0.154-54.367-13.702-107.851-40.239-155.301-26.533-47.451-64.847-87.261-111.25-115.59l-155.912-94.685c-3.793-2.3-8.141-3.517-12.576-3.517-4.432 0-8.781 1.217-12.572 3.517l-155.963 94.708c-46.396 28.329-84.708 68.135-111.243 115.582-26.534 47.443-40.395 100.927-40.245 155.286v121.127c-0.006 3.911 0.889 7.771 2.614 11.28s4.235 6.575 7.336 8.959l164.16 124.598c4.208 3.186 9.339 4.914 14.617 4.923h262.546c5.301-0.012 10.453-1.76 14.667-4.977l164.112-124.554c3.1-2.383 5.608-5.446 7.333-8.954s2.619-7.366 2.615-11.275v-121.127zM254.566 611.869c-36.864-36.969-57.566-87.046-57.566-139.254s20.702-102.286 57.566-139.256c2.271-2.351 4.987-4.226 7.99-5.514 3.003-1.292 6.233-1.969 9.502-1.997 3.269-0.032 6.51 0.591 9.535 1.831 3.025 1.237 5.773 3.064 8.084 5.376s4.139 5.061 5.377 8.086c1.238 3.025 1.861 6.266 1.832 9.535s-0.707 6.498-1.998 9.5c-1.29 3.005-3.165 5.719-5.516 7.991-25.32 25.34-40.565 59.018-42.893 94.763-2.329 35.749 8.416 71.121 30.234 99.533 21.818 28.41 53.22 47.92 88.356 54.896 35.135 6.975 71.609 0.939 102.624-16.983s54.461-46.51 65.961-80.432c11.5-33.926 10.279-70.877-3.442-103.964-13.722-33.091-39.003-60.065-71.136-75.898-32.13-15.833-68.924-19.44-103.522-10.157-6.249 1.516-12.844 0.528-18.373-2.757s-9.554-8.602-11.212-14.816c-1.659-6.211-0.82-12.828 2.336-18.432 3.156-5.6 8.38-9.748 14.553-11.548 33.388-8.936 68.539-8.932 101.926 0.020 33.382 8.952 63.827 26.529 88.261 50.976 24.438 24.442 42.012 54.886 50.956 88.273s8.944 68.537-0.004 101.923c-8.944 33.386-26.522 63.831-50.96 88.272s-54.879 42.020-88.265 50.969c-33.386 8.949-68.539 8.953-101.926 0.012s-63.834-26.512-88.279-50.948zM372.313 404.917c3.233-0.004 6.435 0.63 9.422 1.871 2.987 1.237 5.699 3.052 7.981 5.341l86.153 86.154c4.486 4.643 6.967 10.862 6.912 17.317-0.059 6.451-2.647 12.627-7.211 17.191s-10.736 7.152-17.191 7.207c-6.455 0.055-12.67-2.426-17.313-6.908l-68.751-68.75-25.674 25.671c-4.642 4.486-10.86 6.967-17.314 6.912-6.454-0.059-12.628-2.647-17.192-7.211s-7.153-10.736-7.209-17.191c-0.056-6.455 2.425-12.67 6.909-17.313l43.077-43.079c2.282-2.288 4.995-4.104 7.981-5.341 2.987-1.241 6.189-1.875 9.422-1.871z" />
<glyph unicode="&#xe945;" d="M262.42 960h342.357l290.159-302.441v-588.251c0-73.691-59.62-133.308-133.055-133.308h-499.462c-73.691 0-133.309 59.617-133.309 133.308v757.383c-0.001 73.691 59.617 133.309 133.309 133.309v0z" />
<glyph unicode="&#xe946;" d="M604.501 960v-300.137h290.415l-290.415 300.137z" />
<glyph unicode="&#xe947;" d="M277.222 195.965v187.042h79.576c19.703 0 35.311-5.373 47.081-16.375 11.77-10.746 17.655-25.333 17.655-43.5 0-18.165-5.885-32.751-17.655-43.497-11.77-11.002-27.378-16.375-47.081-16.375h-31.727v-67.294h-47.85zM325.072 303.94h26.354c7.165 0 12.794 1.536 16.631 5.117 3.837 3.328 5.885 7.933 5.885 14.074s-2.045 10.746-5.885 14.071c-3.837 3.584-9.466 5.117-16.631 5.117h-26.354v-38.38zM441.236 195.965v187.042h66.27c13.050 0 25.333-1.792 36.847-5.629s22.005-9.213 31.215-16.631c9.213-7.165 16.631-16.887 22.005-29.17 5.117-12.282 7.933-26.357 7.933-42.22 0-15.607-2.813-29.682-7.933-41.961-5.373-12.282-12.791-22.005-22.005-29.17-9.21-7.421-19.701-12.794-31.215-16.631s-23.797-5.629-36.847-5.629h-66.27zM488.061 236.646h13.815c7.421 0 14.33 0.768 20.727 2.56 6.138 1.792 12.026 4.605 17.655 8.442 5.373 3.84 9.722 9.213 12.791 16.378 3.072 7.162 4.608 15.607 4.608 25.33 0 9.981-1.536 18.423-4.608 25.589-3.069 7.162-7.418 12.535-12.791 16.375-5.629 3.837-11.514 6.653-17.655 8.442-6.397 1.792-13.306 2.56-20.727 2.56h-13.815v-105.677zM629.558 195.965v187.042h133.055v-40.684h-85.205v-29.938h68.062v-40.428h-68.062v-75.992h-47.849z" />
<glyph unicode="&#xe948;" glyph-name="call" d="M240.955 960h-4.782c-8.266-0.263-16.425-1.954-24.114-5l-2.12-0.84c-33.148-13.126-130.902-49.298-155-73.4-35.966-35.96-52.488-80.62-54.688-131.148-2.456-56.46 13.448-115.232 34.438-167.161 53.2-131.622 153.084-259.272 252.79-358.98s227.358-199.602 358.982-252.803c48.656-19.67 102.784-34.667 155.614-34.667 3.855 0 7.709 0.084 11.56 0.242 50.522 2.206 95.2 18.721 131.146 54.682 24.65 24.65 60.202 121.096 73.318 154.774l0.829 2.128c6.349 15.92 6.74 33.598 1.098 49.781-5.651 16.184-16.952 29.784-31.828 38.299l-175.117 101.094c-16.416 9.439-35.903 11.987-54.195 7.086s-33.894-16.851-43.391-33.234c-17.322-30-43.554-54.336-78.4-61.456-16.377-3.576-33.34-3.525-49.695 0.148s-31.71 10.881-44.985 21.118c-38.894 29.189-75.988 63.040-110.356 97.4s-68.199 71.45-97.385 110.336c-10.238 13.276-17.447 28.63-21.122 44.987s-3.725 33.32-0.15 49.699c7.121 34.83 31.472 61.076 61.466 78.399 16.368 9.509 28.307 25.111 33.206 43.396s2.36 37.766-7.062 54.184l-101.098 175.118c-5.954 10.505-14.498 19.312-24.818 25.581s-22.073 9.794-34.14 10.237v0zM519.413 919.16c0 5.363 1.057 10.674 3.109 15.629s5.061 9.457 8.854 13.25c3.793 3.792 8.295 6.801 13.251 8.853s10.267 3.108 15.63 3.108c60.894 0.001 121.191-11.993 177.449-35.296s107.376-57.459 150.433-100.518c43.059-43.059 77.214-94.177 100.515-150.436s35.291-116.556 35.291-177.45c0-10.832-4.301-21.219-11.962-28.879s-18.050-11.961-28.877-11.961c-10.836 0-21.215 4.303-28.877 11.961s-11.962 18.047-11.962 28.879c0 50.166-9.877 99.841-29.076 146.188-19.197 46.348-47.335 88.461-82.806 123.934s-77.585 63.613-123.932 82.811c-46.347 19.198-96.021 29.079-146.187 29.079-5.365-0.001-10.678 1.054-15.635 3.107s-9.46 5.061-13.254 8.854c-3.793 3.793-6.802 8.297-8.855 13.253s-3.109 10.269-3.108 15.634zM519.413 753.694c-0.001 5.364 1.055 10.676 3.107 15.631s5.060 9.458 8.852 13.251c3.793 3.793 8.295 6.802 13.251 8.855s10.266 3.11 15.63 3.111c39.165 0.002 77.947-7.711 114.131-22.698s69.061-36.954 96.755-64.649c27.694-27.694 49.661-60.571 64.648-96.756s22.699-74.966 22.697-114.131c-0.075-10.782-4.412-21.097-12.063-28.694s-17.995-11.862-28.778-11.862c-10.783 0-21.128 4.264-28.778 11.862s-11.987 17.913-12.063 28.694c0.001 28.437-5.6 56.596-16.482 82.87s-26.833 50.145-46.941 70.254c-20.109 20.109-43.981 36.059-70.254 46.941s-54.432 16.483-82.87 16.482c-5.363 0-10.675 1.056-15.63 3.108s-9.457 5.060-13.251 8.853c-3.793 3.793-6.801 8.294-8.854 13.25s-3.109 10.266-3.109 15.629zM519.413 588.238c0.001 10.832 4.305 21.219 11.964 28.878s18.048 11.961 28.88 11.96c17.435 0.001 34.701-3.432 50.808-10.105s30.745-16.451 43.073-28.78c12.329-12.329 22.108-26.966 28.78-43.074s10.104-33.373 10.103-50.809c0-10.832-4.304-21.22-11.963-28.88s-18.048-11.962-28.88-11.962c-10.832 0-21.22 4.303-28.88 11.962s-11.962 18.048-11.962 28.88c0.002 6.709-1.319 13.352-3.886 19.551s-6.328 11.831-11.071 16.575c-4.744 4.744-10.375 8.508-16.573 11.075s-12.841 3.889-19.55 3.889c-5.363 0-10.675 1.056-15.63 3.108s-9.457 5.060-13.251 8.853c-3.793 3.793-6.801 8.294-8.854 13.25s-3.109 10.266-3.109 15.629z" />
<glyph unicode="&#xe949;" glyph-name="sent" horiz-adv-x="1084" d="M0-7.373l1084.235 464.671-1084.235 464.672v-361.412l774.451-103.26-774.451-103.26v-361.412z" />
<glyph unicode="&#xe94a;" glyph-name="location" d="M512 960c-176.732 0-320-143.268-320-320 0-320 320-704 320-704s320 384 320 704c0 176.732-143.27 320-320 320zM512 448c-106.040 0-192 85.96-192 192s85.96 192 192 192 192-85.96 192-192-85.96-192-192-192z" />
<glyph unicode="&#xe94b;" d="M227.816 188.261h183.054c8.298 0 15.024 6.728 15.024 15.024 0 8.298-6.726 15.024-15.024 15.024h-183.054c-8.298 0-15.015-6.726-15.015-15.024 0-8.296 6.717-15.024 15.015-15.024z" />
<glyph unicode="&#xe94c;" d="M227.816 118.569h246.289c8.296 0 15.024 6.728 15.024 15.024 0 8.289-6.728 15.015-15.024 15.015h-246.289c-8.298 0-15.015-6.726-15.015-15.015 0-8.296 6.717-15.024 15.015-15.024z" />
<glyph unicode="&#xe94d;" d="M129.946 595.934c-33.461 0-60.68-27.22-60.68-60.681s27.219-60.679 60.68-60.679c33.461 0 60.68 27.218 60.68 60.679s-27.219 60.681-60.68 60.681zM129.946 504.62c-16.891 0-30.633 13.742-30.633 30.633s13.742 30.633 30.633 30.633c16.891 0 30.633-13.742 30.633-30.633s-13.742-30.633-30.633-30.633z" />
<glyph unicode="&#xe94e;" d="M129.946 411.517c-33.461 0-60.68-27.226-60.68-60.679 0-33.461 27.219-60.681 60.68-60.681s60.68 27.22 60.68 60.681c0 33.452-27.219 60.679-60.68 60.679zM129.946 320.196c-16.891 0-30.633 13.742-30.633 30.633 0 16.898 13.742 30.64 30.633 30.64s30.633-13.742 30.633-30.64c0-16.891-13.742-30.633-30.633-30.633z" />
<glyph unicode="&#xe94f;" d="M129.946 229.117c-33.461 0-60.68-27.218-60.68-60.679s27.219-60.681 60.68-60.681c33.461 0 60.68 27.22 60.68 60.681s-27.219 60.679-60.68 60.679zM129.946 137.805c-16.891 0-30.633 13.742-30.633 30.633 0 16.889 13.742 30.631 30.633 30.631s30.633-13.742 30.633-30.631c0-16.891-13.742-30.633-30.633-30.633z" />
<glyph unicode="&#xe950;" d="M830.648 395.694c7.48-4.529 17.208-1.818 21.728 5.656l137.665 232.96c7.008 12.679 12.672 26.255 16.304 40.752 3.615 14.039 5.656 28.527 5.656 43.472 0 47.775-19.48 91.007-50.72 122.487-31.473 31.24-74.713 50.712-122.481 50.712-48 0-91.24-19.472-122.487-50.704-31.464-31.48-50.712-74.712-50.712-122.488 0-14.952 1.807-29.431 5.441-43.472 3.615-13.583 9.496-28.976 16.519-40.975l137.201-232.52c1.36-2.265 3.391-4.296 5.888-5.879z" />
<glyph unicode="&#xe951;" d="M399.321 18.179c0-8.832-7.016-16.072-15.848-16.072s-16.073 7.24-16.073 16.072v201.281c0 13.577 5.881 25.808 15.392 34.632 9.288 8.6 21.745 13.809 35.552 13.809h187.233c13.807 0 26.487-5.2 35.536-13.809 9.503-8.832 15.408-21.055 15.408-34.632v-201.281c0-8.832-7.025-16.072-15.857-16.072s-16.072 7.24-16.072 16.072v201.281c0 4.296-1.816 8.376-4.983 11.312-3.616 3.168-8.376 5.209-14.032 5.209h-77.665v-217.808c0-8.832-7.008-16.073-15.84-16.073-8.823 0-16.072 7.241-16.072 16.073v217.815h-77.657c-5.431 0-10.191-2.048-13.807-5.207-3.168-2.937-5.209-7.016-5.209-11.312v-201.289h-0.007z" />
<glyph unicode="&#xe952;" d="M354.265 482.524h104.591c8.832 0 15.848-7.025 15.848-15.848v-97.36c0-8.832-7.016-15.831-15.848-15.831h-104.591c-8.832 0-15.848 7.008-15.848 15.831v97.36c-0.009 8.823 7.016 15.848 15.848 15.848v0zM354.265 676.099h104.591c8.832 0 15.848-7.023 15.848-15.848v-97.352c0-8.832-7.016-15.848-15.848-15.848h-104.591c-8.832 0-15.848 7.025-15.848 15.848v97.345c-0.009 8.832 7.016 15.855 15.848 15.855v0zM442.784 644.164h-72.448v-65.193h72.448v65.193zM617.561 578.971c8.832 0 15.84-7.247 15.84-16.079s-7.016-15.848-15.84-15.848h-52.296c-8.832 0-16.080 7.023-16.080 15.848v97.352c0 8.832 7.24 15.848 16.080 15.848 8.832 0 15.848-7.025 15.848-15.848v-81.273h36.448zM565.265 482.524h104.368c8.832 0 16.072-7.025 16.072-15.848v-97.36c0-8.832-7.24-15.831-16.072-15.831h-104.368c-8.832 0-16.080 7.008-16.080 15.831v97.36c0 8.823 7.248 15.848 16.080 15.848zM653.793 450.596h-72.673v-65.2h72.673v65.2zM442.784 450.596h-72.448v-65.2h72.448v65.2z" />
<glyph unicode="&#xe953;" d="M781.025 469.617c-4.519-7.473-14.247-10.185-21.728-5.656-2.495 1.584-4.528 3.615-5.888 5.879l-137.199 232.52c-7.025 12-12.904 27.392-16.521 40.975-3.632 14.041-5.441 28.52-5.441 43.472 0 47.777 19.249 91.009 50.712 122.488 31.249 31.232 74.489 50.704 122.489 50.704 47.768 0 91.008-19.472 122.479-50.712 31.241-31.48 50.72-74.712 50.72-122.487 0-14.945-2.039-29.433-5.656-43.472-3.632-14.496-9.296-28.073-16.304-40.752l-137.665-232.96zM767.45 509.017l123.607 209.423c5.664 10.184 10.192 21.28 13.136 32.824 2.937 11.327 4.521 23.096 4.521 35.543 0 38.945-15.833 74.257-41.424 99.841-25.585 25.576-60.904 41.432-99.84 41.432-39.168 0-74.489-15.848-100.065-41.432-25.368-25.584-41.207-60.896-41.207-99.841 0-12.455 1.577-24.216 4.304-35.543 2.935-11.312 7.463-22.185 12.896-32.369l124.073-209.879z" />
<glyph unicode="&#xe954;" d="M767.452 879.175c25.359 0 48.447-10.424 65.191-27.168 16.759-16.528 27.175-39.616 27.175-65.2 0-25.576-10.423-48.681-27.175-65.432-16.753-16.529-39.832-26.936-65.191-26.936-25.585 0-48.681 10.407-65.434 26.936-16.751 16.751-26.935 39.847-26.935 65.432s10.184 48.672 26.935 65.2c16.753 16.752 39.84 27.168 65.434 27.168v0zM810.011 829.591c-10.871 10.864-26.032 17.656-42.559 17.656-16.753 0-31.928-6.792-42.793-17.656-10.871-11.096-17.655-26.032-17.655-42.792 0-16.753 6.784-31.92 17.655-42.791 10.856-10.865 26.040-17.657 42.793-17.657 16.527 0 31.688 6.793 42.559 17.657 11.088 10.863 17.881 26.039 17.881 42.791 0 16.76-6.793 31.696-17.881 42.792z" />
<glyph unicode="&#xe955;" d="M841.236 182.321c-8.832 0-15.833 7.241-15.833 16.073s7.008 15.855 15.833 15.855h57.96c19.927 0 37.591-11.552 45.286-29.887l74.936-182.48c3.169-7.697 4.296-15.401 3.393-23.096-1.584-15.625-12.008-30.104-25.817-37.352-7.016-3.623-14.711-5.441-22.856-5.441h-924.152c-8.152 0-15.848 1.818-22.864 5.441-14.040 7.248-24.224 21.728-26.032 37.352-0.68 7.695 0.448 15.399 3.392 23.096l75.168 182.48c7.696 18.335 25.352 29.887 45.28 29.887h57.504c8.832 0 15.848-7.031 15.848-15.855s-7.016-16.073-15.848-16.073h-57.504c-7.016 0-13.136-3.391-15.848-10.184l-74.936-182.472c-1.136-2.504-1.584-4.983-1.36-7.48 0.68-5.207 4.304-9.96 8.832-12.455 2.488-1.137 5.2-1.816 8.376-1.816h924.159c3.169 0 5.881 0.679 8.153 1.816 4.76 2.495 8.376 7.24 8.832 12.455 0.224 2.497 0 4.977-1.137 7.48l-74.935 182.472c-2.72 6.799-8.832 10.184-15.848 10.184h-57.984z" />
<glyph unicode="&#xe956;" d="M751.369 401.026c0 8.832 7.241 16.080 16.073 16.080s15.848-7.248 15.848-16.080v-382.839c0-8.832-7.025-16.072-15.848-16.072h-510.761c-8.832 0-15.848 7.24-15.848 16.072v699.791c0 13.585 5.888 25.817 15.401 34.64 9.056 8.608 21.736 14.041 35.543 14.041h251.976c8.832 0 15.848-7.24 15.848-16.080 0-8.832-7.023-16.072-15.848-16.072h-251.976c-5.663 0-10.416-1.816-14.032-5.209-3.168-2.935-4.983-7.016-4.983-11.32v-683.935h478.616v366.983h-0.009z" />
<glyph unicode="&#xe957;" d="M802.133 652.8c0-122.534-99.333-221.867-221.867-221.867s-221.867 99.333-221.867 221.867c0 122.534 99.333 221.867 221.867 221.867s221.867-99.333 221.867-221.867z" />
<glyph unicode="&#xe958;" d="M1023.002 221.578l-112 292.64c-1.398 3.651-4.168 6.612-7.716 8.252s-7.598 1.83-11.284 0.529l-118.001-42.1c-1.894-0.679-3.633-1.734-5.115-3.098-1.48-1.365-2.671-3.012-3.504-4.845-0.831-1.835-1.287-3.816-1.338-5.828-0.053-2.012 0.3-4.016 1.038-5.89l10.26-25.999-80.521-38.24-132.161 24.82c-12.87 2.406-26.1 2.13-38.861-0.807-12.759-2.939-24.777-8.479-35.299-16.273l-23.62-17.521-15.64 11.261c-11.805 8.453-25.38 14.107-39.694 16.532-14.316 2.425-28.995 1.56-42.926-2.533l-50.72-15.101-66.439 39.721 9.54 24.12c0.736 1.872 1.089 3.876 1.038 5.888-0.053 2.012-0.507 3.995-1.34 5.828-0.831 1.833-2.022 3.482-3.504 4.845-1.48 1.365-3.22 2.418-5.115 3.098l-118.080 42.121c-3.692 1.312-7.751 1.13-11.309-0.512-3.558-1.64-6.333-4.608-7.731-8.269l-111.96-292.64c-1.388-3.603-1.331-7.603 0.16-11.167 1.491-3.562 4.299-6.412 7.84-7.953l112-48.259c1.845-0.797 3.831-1.215 5.841-1.229s4.002 0.374 5.858 1.145c1.856 0.77 3.539 1.906 4.947 3.34 1.409 1.432 2.515 3.135 3.253 5.004l11.28 28.541 92.84-52.321c-6.257-9.083-9.137-20.069-8.144-31.053 0.995-10.984 5.799-21.274 13.585-29.087 4.378-4.381 9.58-7.854 15.304-10.218 5.726-2.365 11.861-3.575 18.057-3.562h1.179c1.050-11.735 6.458-22.651 15.159-30.595 8.699-7.945 20.060-12.343 31.841-12.326h1.22c0.951-11.025 5.767-21.361 13.6-29.179 4.378-4.381 9.58-7.854 15.304-10.22 5.726-2.364 11.861-3.575 18.055-3.562h1.181c0.794-8.938 4.12-17.466 9.591-24.579s12.858-12.518 21.294-15.58c8.436-3.062 17.57-3.654 26.329-1.705s16.783 6.356 23.125 12.704l17.819 17.801 24.12-18c10.22-7.615 22.844-11.283 35.553-10.327s24.643 6.47 33.608 15.527l1.7 1.72c7.572 7.729 12.597 17.591 14.399 28.261 9.025-2.548 18.563-2.649 27.639-0.29s17.36 7.089 24.001 13.71l1.241 1.239c8.416 8.4 13.732 19.407 15.080 31.22 9.093-2.708 18.751-2.903 27.947-0.56 9.194 2.342 17.582 7.132 24.272 13.86l0.841 0.841c8.204 8.131 13.467 18.763 14.959 30.22 8.096-1.932 16.536-1.918 24.625 0.038 8.091 1.958 15.602 5.801 21.922 11.22 6.318 5.417 11.266 12.254 14.435 19.951s4.47 16.034 3.797 24.332c-0.261 3.217-0.817 6.403-1.659 9.52l87.18 42.68 7.999-20.161c0.734-1.872 1.838-3.579 3.246-5.014 1.408-1.437 3.091-2.575 4.948-3.347 1.859-0.77 3.852-1.159 5.864-1.142 2.010 0.017 3.999 0.44 5.842 1.242l112 48.261c3.512 1.555 6.292 4.4 7.767 7.948 1.473 3.546 1.529 7.525 0.154 11.11zM118.661 187.86l-84.5 36.439 101.54 265.501 24.9-8.861-48-136.439c-1.326-3.756-1.106-7.885 0.612-11.477s4.793-6.357 8.548-7.683c3.756-1.326 7.884-1.106 11.477 0.613 3.593 1.717 6.357 4.792 7.683 8.549l47.88 136.3 36.499-13.020-106.639-269.92zM296.001 99.76c-3.238-3.11-7.566-4.828-12.054-4.787-4.49 0.043-8.784 1.84-11.965 5.007s-4.995 7.455-5.055 11.945c-0.060 4.489 1.64 8.823 4.736 12.075l32 32c2.406 2.398 5.468 4.029 8.801 4.688 3.331 0.659 6.786 0.317 9.923-0.983 3.139-1.302 5.821-3.502 7.711-6.325 1.889-2.825 2.9-6.144 2.905-9.54 0.007-2.258-0.433-4.494-1.299-6.577s-2.137-3.975-3.741-5.564l-31.961-31.939zM346.841 59.44c-0.899-0.881-1.7-1.821-2.5-2.761l-0.159 0.181c-1.582-1.655-3.476-2.978-5.576-3.891-2.099-0.911-4.359-1.396-6.647-1.422s-4.56 0.403-6.68 1.266-4.045 2.142-5.664 3.758c-1.62 1.618-2.898 3.543-3.763 5.663s-1.297 4.39-1.273 6.678c0.026 2.289 0.507 4.548 1.418 6.649 0.91 2.099 2.231 3.995 3.884 5.577l29.361 29.341c0.879 0.879 1.719 1.799 2.519 2.739l0.14-0.14c3.244 3.104 7.574 4.815 12.063 4.765 4.489-0.048 8.781-1.853 11.957-5.026s4.983-7.463 5.035-11.952c0.053-4.489-1.654-8.82-4.755-12.066l-29.36-29.36zM392.281 14c-3.268-2.937-7.54-4.507-11.931-4.391-4.393 0.116-8.574 1.911-11.684 5.016s-4.912 7.282-5.035 11.675c-0.125 4.391 1.44 8.665 4.371 11.94l32 32c1.551 1.758 3.447 3.18 5.571 4.176 2.121 0.998 4.427 1.551 6.77 1.625 2.345 0.072 4.678-0.335 6.859-1.198s4.163-2.164 5.821-3.821c1.659-1.657 2.961-3.637 3.826-5.818 0.864-2.179 1.273-4.514 1.201-6.857-0.070-2.345-0.621-4.649-1.616-6.772-0.997-2.125-2.417-4.021-4.173-5.574l-31.981-32zM472.441 3.079l-32-32c-3.244-3.103-7.574-4.813-12.063-4.765s-8.781 1.853-11.957 5.026c-3.174 3.173-4.982 7.463-5.035 11.952s1.654 8.82 4.755 12.068l29.36 29.339c0.881 0.881 1.72 1.801 2.519 2.741l0.142-0.14c3.243 3.103 7.572 4.813 12.063 4.763 4.489-0.048 8.779-1.852 11.955-5.026s4.983-7.462 5.036-11.952c0.053-4.489-1.654-8.82-4.755-12.066l-0.020 0.060zM753.161 110.28c-3.987-4.031-9.346-6.414-15.010-6.668-5.663-0.256-11.216 1.632-15.549 5.287l-11.699 9.74c-0.817 1.188-1.801 2.253-2.92 3.161l-26.981 21.68c-3.11 2.336-7.004 3.374-10.865 2.893-3.859-0.481-7.381-2.442-9.822-5.47s-3.611-6.885-3.263-10.759 2.188-7.462 5.13-10.004l23.279-18.78c0.647-0.894 1.384-1.719 2.202-2.459 2.313-2.048 4.181-4.547 5.492-7.344s2.034-5.833 2.128-8.921c0.094-3.087-0.445-6.161-1.584-9.033-1.138-2.871-2.854-5.478-5.038-7.663l-0.84-0.84c-3.792-3.809-8.82-6.144-14.177-6.583-5.359-0.44-10.699 1.043-15.063 4.183l-32.179 23.040c-3.236 2.314-7.258 3.249-11.184 2.599s-7.431-2.835-9.747-6.069c-2.314-3.236-3.249-7.26-2.599-11.184s2.835-7.431 6.071-9.747l8.919-6.38c2.647-1.93 4.845-4.41 6.443-7.269s2.555-6.033 2.807-9.3c0.253-3.265-0.205-6.547-1.343-9.619s-2.927-5.861-5.246-8.173l-1.241-1.241c-4.081-4.076-9.561-6.446-15.326-6.629-5.765-0.181-11.383 1.838-15.713 5.649l-25.001 22.001c-1.435 1.488-3.164 2.664-5.076 3.454-1.913 0.788-3.968 1.174-6.036 1.13s-4.105-0.514-5.982-1.382c-1.879-0.869-3.557-2.115-4.929-3.663-1.372-1.55-2.41-3.364-3.046-5.332-0.637-1.969-0.86-4.048-0.655-6.106s0.835-4.052 1.847-5.856c1.012-1.804 2.388-3.379 4.038-4.627l8.501-7.52c2.316-2.036 4.192-4.524 5.513-7.31 1.321-2.787 2.060-5.815 2.169-8.897 0.111-3.081-0.41-6.153-1.527-9.027s-2.811-5.49-4.975-7.687l-1.7-1.72c-3.86-3.9-8.999-6.275-14.471-6.687-5.473-0.411-10.909 1.167-15.309 4.448l-21.601 16.119c4.565 7.13 7.129 15.357 7.419 23.818 0.292 8.46-1.7 16.843-5.763 24.271s-10.052 13.623-17.335 17.939c-7.284 4.316-15.594 6.593-24.061 6.593h-1.179c-1.055 11.732-6.46 22.644-15.153 30.59-8.695 7.946-20.048 12.351-31.826 12.349h-1.22c-1.089 11.902-6.67 22.944-15.609 30.88s-20.564 12.169-32.512 11.839c-0.94 11.027-5.767 21.361-13.619 29.16-8.852 8.837-20.85 13.802-33.36 13.802-12.508 0-24.506-4.965-33.36-13.802l-16.14-16.119-103 57.999 74.961 189.681 67.879-40.581c1.787-1.068 3.777-1.754 5.842-2.012 2.067-0.258 4.163-0.084 6.158 0.514l57.040 16.98c9.53 2.807 19.574 3.407 29.372 1.754 9.796-1.654 19.087-5.516 27.168-11.295l7.88-5.68-80.179-59.5c-5.949-4.417-10.79-10.16-14.135-16.77-3.345-6.612-5.105-13.911-5.139-21.321-0.036-7.409 1.655-14.725 4.937-21.367 3.284-6.642 8.067-12.43 13.976-16.903 11.141-8.364 24.552-13.167 38.47-13.776 13.92-0.611 27.697 2.999 39.53 10.356l62.959 39.62c7.322-14.599 21.001-34.439 44.761-46.66 27.54-14.159 61.020-14.519 99.62-1.079l106.001-76.341c2.662-1.923 4.878-4.401 6.489-7.264 1.613-2.862 2.586-6.040 2.85-9.315 0.263-3.273-0.186-6.567-1.318-9.651-1.133-3.084-2.922-5.885-5.243-8.211v0.061zM772.441 165.799l-116.98 84.2c-2.029 1.457-4.391 2.386-6.871 2.7s-4.999 0.005-7.328-0.899c-33.399-12.96-61.14-14.001-82.5-3.181-28.279 14.38-36.939 45.821-37.019 46-0.584 2.289-1.702 4.407-3.258 6.183-1.558 1.775-3.512 3.157-5.705 4.035s-4.562 1.224-6.914 1.012c-2.353-0.212-4.622-0.975-6.624-2.229l-78.16-49.021c-6.676-4.149-14.455-6.18-22.31-5.823s-15.416 3.084-21.69 7.823c-2.193 1.657-3.971 3.802-5.19 6.267s-1.847 5.18-1.833 7.927c0.014 2.749 0.667 5.458 1.911 7.91 1.242 2.452 3.041 4.581 5.251 6.216l129.080 95.8c7.2 5.33 15.421 9.119 24.153 11.127 8.73 2.010 17.78 2.198 26.586 0.551l136.96-25.719c3.115-0.597 6.339-0.184 9.201 1.179l83.12 39.48 77.74-196.719-91.621-44.82zM905.341 187.919l-106.699 270 36.519 13.020 47.86-136.3c1.326-3.756 4.091-6.832 7.683-8.549 3.593-1.719 7.721-1.939 11.477-0.613s6.83 4.091 8.549 7.683c1.717 3.593 1.937 7.721 0.611 11.477l-48 136.439 24.9 8.861 101.54-265.501-84.441-36.519z" />
<glyph unicode="&#xe959;" d="M512 489.999c46.479 0 91.914 13.783 130.558 39.605 38.646 25.822 68.767 62.524 86.554 105.465 17.787 42.94 22.441 90.191 13.373 135.777s-31.45 87.458-64.316 120.323-74.738 55.247-120.323 64.314c-45.585 9.068-92.836 4.414-135.777-13.373s-79.642-47.907-105.463-86.553c-25.824-38.645-39.605-84.081-39.605-130.558 0.068-62.305 24.849-122.039 68.905-166.095s103.789-68.837 166.095-68.907zM512 930c40.545 0 80.179-12.023 113.893-34.549 33.712-22.526 59.986-54.542 75.503-92.001 15.515-37.459 19.575-78.678 11.665-118.444s-27.435-76.293-56.103-104.963c-28.67-28.67-65.198-48.195-104.963-56.105-39.767-7.909-80.985-3.85-118.444 11.667-37.458 15.515-69.475 41.791-92.001 75.503-22.525 33.712-34.548 73.347-34.548 113.893 0.058 54.351 21.675 106.46 60.107 144.892s90.54 60.049 144.893 60.107z" />
<glyph unicode="&#xe95a;" d="M512 550.001c34.611 0 68.446 10.262 97.225 29.493 28.778 19.229 51.209 46.56 64.454 78.537s16.71 67.162 9.958 101.11c-6.753 33.947-23.421 65.129-47.894 89.603s-55.656 41.141-89.603 47.894c-33.946 6.752-69.132 3.287-101.11-9.958s-59.308-35.675-78.537-64.454c-19.229-28.779-29.493-62.613-29.493-97.224 0.053-46.397 18.507-90.878 51.314-123.686s77.288-51.261 123.686-51.314zM512 870c28.679 0 56.713-8.504 80.558-24.437s42.429-38.579 53.405-65.074c10.974-26.496 13.846-55.651 8.25-83.777-5.594-28.128-19.405-53.965-39.683-74.243s-46.114-34.089-74.242-39.683c-28.128-5.594-57.283-2.724-83.777 8.252-26.496 10.974-49.142 29.559-65.073 53.405-15.933 23.846-24.438 51.879-24.438 80.558 0.043 38.443 15.333 75.299 42.516 102.483s64.041 42.474 102.484 42.516z" />
<glyph unicode="&#xe95b;" d="M813.884 725.001c0-1.971 0.387-3.92 1.142-5.741 0.753-1.819 1.859-3.473 3.251-4.866s3.046-2.499 4.866-3.251c1.821-0.754 3.772-1.142 5.741-1.142h83.12c3.978 0 7.794 1.58 10.607 4.393s4.393 6.629 4.393 10.607c0 3.978-1.58 7.793-4.393 10.605-2.813 2.814-6.629 4.395-10.607 4.395h-83.12c-3.978 0-7.794-1.58-10.607-4.395-2.813-2.813-4.393-6.627-4.393-10.605z" />
<glyph unicode="&#xe95c;" d="M797.718 793.376c2.666-0.021 5.289 0.67 7.6 2l62.319 36.62c3.449 2.013 5.955 5.313 6.97 9.175s0.454 7.968-1.56 11.416c-2.012 3.448-5.313 5.955-9.173 6.969-3.862 1.014-7.968 0.454-11.416-1.559l-62.341-36.68c-2.871-1.653-5.115-4.211-6.38-7.273s-1.481-6.458-0.613-9.656c0.867-3.198 2.77-6.019 5.41-8.021s5.869-3.075 9.184-3.049v0.060z" />
</font>
</defs>
</svg>
